+ ShareSpark.net »  :::: Bollywood Zone » Regional Movies » Regional Movies in Hindi
|- Patel for Sale 2016 Hindi 1080p WEB-DL H264 AAC2.0 [DDR] 2.7GB


Patel for Sale 2016 Hindi 1080p WEB-DL H264 AAC2.0 [DDR] 2.7GB

0 Members and 1 Guest are viewing this topic.

January 11, 2017, 01:02:26 PM
  • Team SSX
  • Legend Member
  • ***
  • Topic Author
  • Thank You: 998
  • Reputation: 146
  • Activity:
    100%
  • Country: in
  • Posts: 1839
  • Topics: 1278
  • Join Date: Sep 2016
  • (: EnJOy ThE LiFe :)
Torrable - One stop for all your download & upload needs. It's smart, easy and free.
:title:
Patel for Sale 2016 Hindi 1080p WEB-DL H264 AAC2.0 DDR



 :info:

General
Complete name                            : Patel.for.Sale.2016.1080p.WEB-DL.H264.AAC2.0-DDR.mkv
Format                                   : Matroska
Format version                           : Version 4 / Version 2
File size                                : 2.70 GiB
Duration                                 : 2 h 2 min
Overall bit rate                         : 3 161 kb/s
Encoded date                             : UTC 2017-01-10 19:33:21
Writing application                      : mkvmerge v9.7.1 ('Pandemonium') 64bit
Writing library                          : libebml v1.3.4 + libmatroska v1.4.5

Video
ID                                       : 1
Format                                   : AVC
Format/Info                              : Advanced Video Codec
Format profile                           : [email protected]
Format settings, CABAC                   : Yes
Format settings, ReFrames                : 4 frames
Codec ID                                 : V_MPEG4/ISO/AVC
Duration                                 : 2 h 2 min
Bit rate                                 : 2 999 kb/s
Width                                    : 1 920 pixels
Height                                   : 1 080 pixels
Display aspect ratio                     : 16:9
Frame rate mode                          : Constant
Frame rate                               : 24.000 FPS
Color space                              : YUV
Chroma subsampling                       : 4:2:0
Bit depth                                : 8 bits
Scan type                                : Progressive
Bits/(Pixel*Frame)                       : 0.060
Stream size                              : 2.56 GiB (95%)
Default                                  : Yes
Forced                                   : No

Audio
ID                                       : 2
Format                                   : AAC
Format/Info                              : Advanced Audio Codec
Format profile                           : LC
Codec ID                                 : A_AAC
Duration                                 : 2 h 2 min
Bit rate                                 : 160 kb/s
Channel(s)                               : 2 channels
Channel positions                        : Front: L R
Sampling rate                            : 44.1 kHz
Frame rate                               : 43.066 FPS (1024 spf)
Compression mode                         : Lossy
Stream size                              : 140 MiB (5%)
Default                                  : Yes
Forced                                   : No


 :ss:



















 :download:








Share this topic on FacebookShare this topic on GoogleShare this topic on MySpaceShare this topic on TwitterShare this topic on Yahoo

« Last Edit: January 14, 2017, 08:30:35 PM by PSYCHO »



January 15, 2017, 05:43:34 PM
Reply #1
  • Hero Member
  • ***
  • Thank You: 74
  • Reputation: 27
  • Activity:
    68.2%
  • Country: bd
  • Posts: 339
  • Topics: 44
  • Join Date: Jan 2017
  • ShareSpark Member

Tags:
 

Related Topics

  Subject / Started by Replies Last post
0 Replies
194 Views
Last post May 15, 2016, 11:10:36 AM
by black220
0 Replies
200 Views
Last post August 05, 2016, 04:19:23 PM
by ♥ Mann ♥
0 Replies
305 Views
Last post August 19, 2016, 05:24:57 PM
by ♥ Mann ♥
0 Replies
608 Views
Last post November 27, 2016, 10:11:02 AM
by sagarsingha
0 Replies
532 Views
Last post January 11, 2017, 02:53:51 AM
by Rάήνίјάч1234




Back to top