+ ShareSpark.net »  :::: Hollywood Zone » TV Shows
|- The 23rd Annual Screen Actors Guild Awards (2017) 720p HDTV x264 AAC 800MB


TV and Appliances

The 23rd Annual Screen Actors Guild Awards (2017) 720p HDTV x264 AAC 800MB

0 Members and 1 Guest are viewing this topic.

January 31, 2017, 06:34:24 PM
  • Begginer
  • **
  • Topic Author
  • Thank You: 76
  • Reputation: 9
  • Activity:
    0%
  • Country: mx
  • Posts: 90
  • Topics: 86
  • Join Date: Dec 2016
  • ShareSpark Member


:info:


Format                                   : Matroska
Format version                           : Version 4 / Version 2
File size                                : 803 MiB
Duration                                 : 1 h 43 min
Overall bit rate                         : 1 083 kb/s
Encoded date                             : UTC 2017-01-31 06:26:29
Writing application                      : mkvmerge v7.0.0 ('Where We Going') 64bit built on Jun  9 2014 15:16:27
Writing library                          : libebml v1.3.0 + libmatroska v1.4.1

Video
ID                                       : 1
Format                                   : AVC
Format/Info                              : Advanced Video Codec
Format profile                           : [email protected]
Format settings, CABAC                   : Yes
Format settings, ReFrames                : 5 frames
Codec ID                                 : V_MPEG4/ISO/AVC
Duration                                 : 1 h 43 min
Bit rate                                 : 1 015 kb/s
Width                                    : 1 280 pixels
Height                                   : 720 pixels
Display aspect ratio                     : 16:9
Frame rate mode                          : Constant
Frame rate                               : 60.000 FPS
Color space                              : YUV
Chroma subsampling                       : 4:2:0
Bit depth                                : 8 bits
Scan type                                : Progressive
Bits/(Pixel*Frame)                       : 0.018
Stream size                              : 753 MiB (94%)
Writing library                          : x264 core 146 r2538 121396c
Default                                  : Yes
Forced                                   : No

Audio
ID                                       : 2
Format                                   : AAC
Format/Info                              : Advanced Audio Codec
Format profile                           : HE-AAC / LC
Codec ID                                 : A_AAC
Duration                                 : 1 h 43 min
Bit rate                                 : 64.0 kb/s
Channel(s)                               : 2 channels
Channel positions                        : Front: L R
Sampling rate                            : 48.0 kHz / 24.0 kHz
Frame rate                               : 23.438 FPS (1024 spf)
Compression mode                         : Lossy
Delay relative to video                  : 31 ms
Stream size                              : 47.5 MiB (6%)
Default                                  : Yes
Forced                                   : No



:ss:














:download:





Share this topic on FacebookShare this topic on GoogleShare this topic on MySpaceShare this topic on TwitterShare this topic on Yahoo




Tags:
 

Related Topics





Back to top