+ ShareSpark.net »  :::: Bollywood Zone » Bollywood Movies (Original Rips) » High Resolution Movies
|- Dear Zindagi 2016 Hindi 1080p BluRay x264 DTS 5.1 Esub - Hon3y - 7.96 GB


Electroncs Sale

Dear Zindagi 2016 Hindi 1080p BluRay x264 DTS 5.1 Esub - Hon3y - 7.96 GB

0 Members and 1 Guest are viewing this topic.

February 05, 2017, 01:14:48 AM
  • Global Moderator
  • Legend Member
  • *****
  • Topic Author
  • Thank You: 11188
  • Reputation: 2238
  • Activity:
    100%
  • Country: in
  • Posts: 5469
  • Topics: 4513
  • Join Date: Jan 2014
  • ıllıllı ѕмoĸιng ιѕ good ғor нealтн ıllıllı :)


Dear Zindagi 2016 Hindi 1080p BluRay x264 DTS  5.1 Esub - Hon3y - 7.96 GB

Format                      : Matroska
Format version              : Version 4 / Version 2
File size                   : 7.96 GiB
Duration                    : 2 h 29 min
Overall bit rate            : 7 600 kb/s


Video
ID                          : 1
Format                      : AVC
Format/Info                 : Advanced Video Codec
Format profile              : [email protected]
Format settings, CABAC      : Yes
Format settings, ReFrames   : 5 frames
Codec ID                    : V_MPEG4/ISO/AVC
Duration                    : 2 h 29 min
Bit rate                    : 6 075 kb/s
Width                       : 1 920 pixels
Height                      : 800 pixels
Display aspect ratio        : 2.40:1
Frame rate mode             : Constant
Frame rate                  : 24.000 FPS
Language                    : English
Default                     : Yes
Forced                      : No

Audio
ID                          : 2
Format                      : DTS
Format/Info                 : Digital Theater Systems
Mode                        : 16
Format settings, Endianness : Big
Codec ID                    : A_DTS
Duration                    : 2 h 29 min
Bit rate mode               : Constant
Bit rate                    : 1 509 kb/s
Channel(s)                  : 6 channels
Channel positions           : Front: L C R, Side: L R, LFE
Sampling rate               : 48.0 kHz
Frame rate                  : 93.750 FPS (512 spf)
Bit depth                   : 24 bits
Compression mode            : Lossy
Stream size                 : 1.58 GiB (20%)
Language                    : Hindi
Default                     : Yes
Forced                      : No

Text
ID                          : 3
Format                      : PGS
Muxing mode                 : zlib
Codec ID                    : S_HDMV/PGS
Codec ID/Info               : Picture based subtitle format used on BDs/HD-DVDs
Duration                    : 2 h 25 min
Bit rate                    : 17.2 kb/s
Count of elements           : 3499
Stream size                 : 17.9 MiB (0%)
Language                    : English
Default                     : Yes
Forced                      : No

Menu
00:00:00.000                : en:Chapter 01
00:01:52.625                : en:Chapter 02
00:09:20.833                : en:Chapter 03
00:19:56.166                : en:Chapter 04
00:21:35.541                : en:Chapter 05
00:36:13.833                : en:Chapter 06
00:39:59.000                : en:Chapter 07
00:47:00.500                : en:Chapter 08
01:04:30.083                : en:Chapter 09
01:12:46.416                : en:Chapter 10
01:21:14.083                : en:Chapter 11
01:24:00.541                : en:Chapter 12
01:30:55.541                : en:Chapter 13
01:34:00.125                : en:Chapter 14
01:45:03.000                : en:Chapter 15
01:52:56.416                : en:Chapter 16
02:04:38.000                : en:Chapter 17
02:09:00.375                : en:Chapter 18
02:13:01.833                : en:Chapter 19
02:21:38.750                : en:Chapter 20
02:26:24.416                : en:Chapter 21





















Don't walk as you are king, walk as you don't care who the king is....!!
Never argue with an idiot. They drag you down to their level and then beat you with experience?

Share this topic on FacebookShare this topic on GoogleShare this topic on MySpaceShare this topic on TwitterShare this topic on Yahoo




Don't walk as you are king, walk as you don't care who the king is....!!

Thanks given by:


Tags:
 

Related Topics





Back to top