+ ShareSpark.net »  :::: Bollywood Zone » Regional Movies » Bengali Movies
|- Aguner Pakhi (2016) BENGALI - HDRip - x264 - AAC - [DDR] 1GB

Mobile Recharge Offer 20% Off

Aguner Pakhi (2016) BENGALI - HDRip - x264 - AAC - [DDR] 1GB

0 Members and 1 Guest are viewing this topic.

February 17, 2017, 12:34:51 AM
  • Elite Moderator
  • Legend Member
  • ****
  • Topic Author
  • Thank You: 1999
  • Reputation: 286
  • Activity:
    3.6%
  • Country: in
  • Posts: 3722
  • Topics: 2854
  • Join Date: Sep 2016
  • (: EnJOy D LiFe :)
:title:
Aguner Pakhi (2016) - HDRip - x264 - AAC [DDR]



 :info:

Format : Matroska
Format version : Version 4 / Version 2
File size : 1.00 GiB
Duration : 2 h 4 min
Overall bit rate : 1 150 kb/s
Movie name : A DDR ExclusivE Release
Encoded date : UTC 2017-02-16 17:22:15
Writing application : mkvmerge v9.8.0 ('Kuglblids') 64bit
Writing library : libebml v1.3.4 + libmatroska v1.4.5

Video
ID : 2
Format : AVC
Format/Info : Advanced Video Codec
Format profile : [email protected]
Format settings, CABAC : Yes
Format settings, ReFrames : 7 frames
Codec ID : V_MPEG4/ISO/AVC
Duration : 2 h 4 min
Bit rate : 1 020 kb/s
Width : 720 pixels
Height : 304 pixels
Display aspect ratio : 2.35:1
Frame rate mode : Constant
Frame rate : 24.000 FPS
Color space : YUV
Chroma subsampling : 4:2:0
Bit depth : 8 bits
Scan type : Progressive
Bits/(Pixel*Frame) : 0.194
Stream size : 911 MiB (89%)
Title : Aguner Pakhi (2016) - HDRip - x264 - AAC - 1GB [DDR]
Writing library : x264 core 148 r2638 7599210


Language : Bengali
Default : Yes
Forced : No

Audio
ID : 1
Format : AAC
Format/Info : Advanced Audio Codec
Format profile : LC
Codec ID : A_AAC
Duration : 2 h 4 min
Bit rate : 128 kb/s
Channel(s) : 2 channels
Channel positions : Front: L R
Sampling rate : 48.0 kHz
Frame rate : 46.875 FPS (1024 spf)
Compression mode : Lossy
Delay relative to video : 9 ms
Stream size : 114 MiB (11%)
Title : 2.1 AAC [DDR]
Language : Bengali
Default : Yes
Forced : No


 :ss:

















 :download:










Share this topic on FacebookShare this topic on GoogleShare this topic on MySpaceShare this topic on TwitterShare this topic on Yahoo

« Last Edit: February 17, 2017, 12:50:38 AM by PSYCHO »


* BUSY *


Tags:
 

Related Topics

  Subject / Started by Replies Last post
0 Replies
550 Views
Last post June 26, 2015, 09:56:11 PM
by Alex Boy
2 Replies
1443 Views
Last post August 18, 2016, 05:09:10 PM
by hyunkambey
1 Replies
1360 Views
Last post August 21, 2016, 12:05:01 PM
by shahzaibjaan
1 Replies
738 Views
Last post February 18, 2017, 11:49:29 AM
by Vagabond
1 Replies
873 Views
Last post August 25, 2018, 05:22:36 PM
by sbmaiti



Back to top