+ ShareSpark.net »  :::: Bollywood Zone » Regional Movies » Bengali Movies
|- Aguner Pakhi (2016) - 720p - HDRip - x264 - AC3 [DDR] 2.87GB

Pantry 600 Back

Aguner Pakhi (2016) - 720p - HDRip - x264 - AC3 [DDR] 2.87GB

0 Members and 1 Guest are viewing this topic.

February 17, 2017, 01:32:38 AM
  • Elite Moderator
  • Legend Member
  • ****
  • Topic Author
  • Thank You: 1999
  • Reputation: 286
  • Activity:
    3.6%
  • Country: in
  • Posts: 3722
  • Topics: 2854
  • Join Date: Sep 2016
  • (: EnJOy D LiFe :)
:title:
Aguner Pakhi (2016) - 720p - HDRip - x264 - AC3 [DDR]



 :info:

Format : Matroska
Format version : Version 4 / Version 2
File size : 2.87 GiB
Duration : 2 h 4 min
Overall bit rate : 3 288 kb/s
Movie name : A DDR ExclusivE Relaease
Encoded date : UTC 2017-02-16 17:16:09
Writing application : mkvmerge v9.8.0 ('Kuglblids') 64bit
Writing library : libebml v1.3.4 + libmatroska v1.4.5

Video
ID : 2
Format : AVC
Format/Info : Advanced Video Codec
Format profile : [email protected]
Format settings, CABAC : Yes
Format settings, ReFrames : 7 frames
Codec ID : V_MPEG4/ISO/AVC
Duration : 2 h 4 min
Bit rate : 3 030 kb/s
Width : 1 280 pixels
Height : 544 pixels
Display aspect ratio : 2.35:1
Frame rate mode : Constant
Frame rate : 24.000 FPS
Color space : YUV
Chroma subsampling : 4:2:0
Bit depth : 8 bits
Scan type : Progressive
Bits/(Pixel*Frame) : 0.181
Stream size : 2.64 GiB (92%)
Title : Aguner Pakhi (2016) - 720p - HDRip - x264 - AC3 [DDR]
Writing library : x264 core 148 r2638 7599210


Language : Bengali
Default : Yes
Forced : No
Color range : Limited
Color primaries : BT.709
Transfer characteristics : BT.709
Matrix coefficients : BT.709

Audio
ID : 1
Format : AC-3
Format/Info : Audio Coding 3
Mode extension : CM (complete main)
Format settings, Endianness : Big
Codec ID : A_AC3
Duration : 2 h 4 min
Bit rate mode : Constant
Bit rate : 256 kb/s
Channel(s) : 2 channels
Channel positions : Front: L R
Sampling rate : 44.1 kHz
Frame rate : 28.711 FPS (1536 spf)
Bit depth : 16 bits
Compression mode : Lossy
Stream size : 229 MiB (8%)
Language : Bengali
Default : Yes
Forced : No


 :ss:






 :download:








Share this topic on FacebookShare this topic on GoogleShare this topic on MySpaceShare this topic on TwitterShare this topic on Yahoo



* BUSY *

Thanks given by:


February 18, 2017, 11:49:29 AM
Reply #1
  • Elite Forces
  • ****
  • Thank You: 228
  • Reputation: 97
  • Activity:
    9%
  • Country: sa
  • Posts: 1143
  • Topics: 116
  • Join Date: Jan 2017
  • ShareSpark Member

Tags:
 

Related Topics

  Subject / Started by Replies Last post
0 Replies
550 Views
Last post June 26, 2015, 09:56:11 PM
by Alex Boy
1 Replies
657 Views
Last post July 14, 2015, 07:37:46 AM
by яαzσя 07
0 Replies
564 Views
Last post December 26, 2016, 06:35:05 PM
by PSYCHO
0 Replies
597 Views
Last post February 10, 2017, 03:08:21 PM
by Rάήνίјάч1234
0 Replies
519 Views
Last post February 17, 2017, 12:34:51 AM
by PSYCHO



Back to top