+ ShareSpark.net »  :::: Bollywood Zone » Bollywood Movies (Original Rips)
|- Kyo Kii... Main Jhuth Nahin Bolta (2001) Hindi 720p HDRip x264 AAC 1.5GB


10% SBI and 10% Discount

Kyo Kii... Main Jhuth Nahin Bolta (2001) Hindi 720p HDRip x264 AAC 1.5GB

0 Members and 1 Guest are viewing this topic.

February 18, 2017, 08:05:12 PM
  • Begginer
  • **
  • Topic Author
  • Thank You: 76
  • Reputation: 9
  • Activity:
    0%
  • Country: mx
  • Posts: 90
  • Topics: 86
  • Join Date: Dec 2016
  • ShareSpark Member


:info:

Format                                   : Matroska
Format version                           : Version 4 / Version 2
File size                                : 1.51 GiB
Duration                                 : 2 h 36 min
Overall bit rate                         : 1 382 kb/s
Encoded date                             : UTC 2017-02-17 18:53:04
Writing application                      : mkvmerge v7.0.0 ('Where We Going') 64bit built on Jun  9 2014 15:16:27
Writing library                          : libebml v1.3.0 + libmatroska v1.4.1

Video
ID                                       : 1
Format                                   : AVC
Format/Info                              : Advanced Video Codec
Format profile                           : [email protected]
Format settings, CABAC                   : Yes
Format settings, ReFrames                : 4 frames
Codec ID                                 : V_MPEG4/ISO/AVC
Duration                                 : 2 h 36 min
Bit rate                                 : 1 284 kb/s
Width                                    : 1 280 pixels
Height                                   : 544 pixels
Display aspect ratio                     : 2.35:1
Frame rate mode                          : Constant
Frame rate                               : 23.976 (24000/1001) FPS
Color space                              : YUV
Chroma subsampling                       : 4:2:0
Bit depth                                : 8 bits
Scan type                                : Progressive
Bits/(Pixel*Frame)                       : 0.077
Stream size                              : 1.40 GiB (93%)
Writing library                          : x264 core 142 r2479 dd79a61
Default                                  : Yes
Forced                                   : No
Color range                              : Limited
Color primaries                          : BT.709
Transfer characteristics                 : BT.709
Matrix coefficients                      : BT.709

Audio
ID                                       : 2
Format                                   : AAC
Format/Info                              : Advanced Audio Codec
Format profile                           : LC
Codec ID                                 : A_AAC
Duration                                 : 2 h 36 min
Bit rate                                 : 96.0 kb/s
Channel(s)                               : 2 channels
Channel positions                        : Front: L R
Sampling rate                            : 48.0 kHz
Frame rate                               : 46.875 FPS (1024 spf)
Compression mode                         : Lossy
Stream size                              : 107 MiB (7%)
Default                                  : Yes
Forced                                   : No



:ss:












:download:





Share this topic on FacebookShare this topic on GoogleShare this topic on MySpaceShare this topic on TwitterShare this topic on Yahoo




Tags:
 

Related Topics

  Subject / Started by Replies Last post
0 Replies
801 Views
Last post June 17, 2014, 08:51:34 AM
by donking
2 Replies
1374 Views
Last post February 13, 2015, 04:11:56 PM
by basant kumar
0 Replies
439 Views
Last post October 30, 2018, 10:18:34 PM
by Special26
8 Replies
440 Views
Last post November 30, 2018, 10:43:26 PM
by nirzak
0 Replies
343 Views
Last post January 04, 2019, 08:55:46 PM
by Special26




Back to top