+ ShareSpark.net »  :::: Bollywood Zone » Regional Movies » Marathi Movies
|- 7O2 DIXIT's 2016 MARATHI 720p Untouched WEB-DL AAC 2.0 [1.15GB]


Mastercard 10% Off
  • 7O2 DIXIT's 2016 MARATHI 720p Untouched WEB-DL AAC 2.0 [1.15GB] 5 1
Currently:  

7O2 DIXIT's 2016 MARATHI 720p Untouched WEB-DL AAC 2.0 [1.15GB]

0 Members and 1 Guest are viewing this topic.

February 28, 2017, 02:04:20 PM
  • Elite Moderator
  • Legend Member
  • ****
  • Topic Author
  • Thank You: 2007
  • Reputation: 289
  • Activity:
    0%
  • Country: in
  • Posts: 3724
  • Topics: 2854
  • Join Date: Sep 2016
  • (: EnJOy D LiFe :)
:title:
7O2 DIXIT's 2016 MARATHI 720p Untouched WEB-DL AAC 2.0



 :info:

Video
ID : 1
Format : AVC
Format/Info : Advanced Video Codec
Format profile : [email protected]
Format settings, CABAC : Yes
Format settings, ReFrames : 1 frame
Format settings, GOP : M=1, N=60
Codec ID : avc1
Codec ID/Info : Advanced Video Coding
Duration : 1 h 55 min
Bit rate : 1 241 kb/s
Maximum bit rate : 6 166 kb/s
Width : 1 280 pixels
Height : 720 pixels
Display aspect ratio : 16:9
Frame rate mode : Variable
Frame rate : 24.870 FPS
Minimum frame rate : 8.333 FPS
Maximum frame rate : 25.000 FPS
Color space : YUV
Chroma subsampling : 4:2:0
Bit depth : 8 bits
Scan type : Progressive
Bits/(Pixel*Frame) : 0.054
Stream size : 1.00 GiB (86%)

IMDB :


Audio
ID : 2
Format : AAC
Format/Info : Advanced Audio Codec
Format profile : LC
Codec ID : 40
Duration : 1 h 55 min
Bit rate mode : Variable
Bit rate : 192 kb/s
Maximum bit rate : 202 kb/s
Channel(s) : 2 channels
Channel positions : Front: L R
Sampling rate : 44.1 kHz
Frame rate : 43.066 FPS (1024 spf)
Compression mode : Lossy
Stream size : 159 MiB (13%)


SOURCE : FAKT MARATHI (THANKS)

 :ss:















 :download:














Share this topic on FacebookShare this topic on GoogleShare this topic on MySpaceShare this topic on TwitterShare this topic on Yahoo



* BUSY *

Thanks given by:


February 28, 2017, 06:48:44 PM
Reply #1
  • Elite Forces
  • ****
  • Thank You: 252
  • Reputation: 106
  • Activity:
    1.6%
  • Country: sa
  • Posts: 1198
  • Topics: 136
  • Join Date: Jan 2017
  • ShareSpark Member

February 28, 2017, 10:05:27 PM
Reply #2
  • Begginer
  • **
  • Thank You: 0
  • Reputation: 2
  • Activity:
    0%
  • Country: in
  • Posts: 68
  • Topics: 0
  • Join Date: Nov 2016
  • ShareSpark Member
Movie upload kelyabaddal dhanyavaad BHAVA!!!!

March 02, 2017, 02:55:49 AM
Reply #3
  • Elite Moderator
  • Legend Member
  • ****
  • Topic Author
  • Thank You: 2007
  • Reputation: 289
  • Activity:
    0%
  • Country: in
  • Posts: 3724
  • Topics: 2854
  • Join Date: Sep 2016
  • (: EnJOy D LiFe :)

Tags:
 

Related Topics

  Subject / Started by Replies Last post
0 Replies
1780 Views
Last post May 03, 2016, 04:35:44 PM
by sagarsingha
0 Replies
878 Views
Last post December 27, 2016, 08:11:19 PM
by PSYCHO
1 Replies
1233 Views
Last post January 06, 2017, 12:05:07 AM
by vish790
2 Replies
731 Views
Last post February 26, 2017, 09:32:36 PM
by vish790
2 Replies
1174 Views
Last post September 05, 2017, 05:07:02 PM
by s543210




Back to top