+ ShareSpark.net »  :::: Hollywood Zone » Hollywood Movies (Original Rips)
|- Cruel Summer 2016 HDRip XviD AC3 [EVO] 1.34GB


100% Recharge Offer

Cruel Summer 2016 HDRip XviD AC3 [EVO] 1.34GB

0 Members and 1 Guest are viewing this topic.

March 21, 2017, 02:32:03 PM
  • Elite Moderator
  • Legend Member
  • ****
  • Topic Author
  • Thank You: 2000
  • Reputation: 286
  • Activity:
    1.2%
  • Country: in
  • Posts: 3722
  • Topics: 2854
  • Join Date: Sep 2016
  • (: EnJOy D LiFe :)
Cruel Summer 2016 HDRip XviD AC3 EVO



 :info:

Video
ID                                       : 0
Format                                   : MPEG-4 Visual
Format profile                           : Advanced [email protected]
Format settings, BVOP                    : 2
Format settings, QPel                    : No
Format settings, GMC                     : No warppoints
Format settings, Matrix                  : Default (H.263)
Muxing mode                              : Packed bitstream
Codec ID                                 : XVID
Codec ID/Hint                            : XviD
Duration                                 : 1h 19mn
Bit rate                                 : 2 013 Kbps
Width                                    : 720 pixels
Height                                   : 304 pixels
Display aspect ratio                     : 2.35:1
Frame rate                               : 24.000 fps
Color space                              : YUV
Chroma subsampling                       : 4:2:0
Bit depth                                : 8 bits
Scan type                                : Progressive
Compression mode                         : Lossy
Bits/(Pixel*Frame)                       : 0.383
Stream size                              : 1.12 GiB (84%)
Writing library                          : XviD 66

Audio
ID                                       : 1
Format                                   : AC-3
Format/Info                              : Audio Coding 3
Mode extension                           : CM (complete main)
Format settings, Endianness              : Big
Codec ID                                 : 2000
Duration                                 : 1h 19mn
Bit rate mode                            : Constant
Bit rate                                 : 384 Kbps
Channel(s)                               : 6 channels
Channel positions                        : Front: L C R, Side: L R, LFE
Sampling rate                            : 48.0 KHz
Frame rate                               : 31.250 fps (1536 spf)
Compression mode                         : Lossy
Stream size                              : 220 MiB (16%)
Alignment                                : Aligned on interleaves
Interleave, duration                     : 42 ms (1.00 video frame)
Interleave, preload duration             : 512 ms


 :ss:








 :download:












Share this topic on FacebookShare this topic on GoogleShare this topic on MySpaceShare this topic on TwitterShare this topic on Yahoo



* BUSY *


Tags:
 

Related Topics

  Subject / Started by Replies Last post
0 Replies
573 Views
Last post February 19, 2017, 09:01:16 PM
by PSYCHO
0 Replies
382 Views
Last post March 06, 2017, 07:56:05 AM
by saskay
0 Replies
431 Views
Last post March 17, 2017, 08:57:31 PM
by PSYCHO
0 Replies
560 Views
Last post March 31, 2017, 02:15:44 AM
by PSYCHO
0 Replies
250 Views
Last post December 02, 2017, 11:47:42 PM
by PSYCHO




Back to top