+ ShareSpark.net »  :::: Hollywood Zone » TV Shows
|- The.Walking.Dead.S07E16.HDTV.x264-KILLERS[ettv]


Mastercard 10% Off

The.Walking.Dead.S07E16.HDTV.x264-KILLERS[ettv]

0 Members and 1 Guest are viewing this topic.

April 03, 2017, 11:31:05 AM
  • *****************
  • Head Admin
  • Legend Member
  • *****
  • Topic Author
  • Thank You: 6718
  • Reputation: 2938
  • Activity:
    63.6%
  • Country: in
  • Posts: 18836
  • Topics: 10956
  • Join Date: Mar 2012
  • The Time Is Now......
The.Walking.Dead.S07E16.HDTV.x264-KILLERS


[Format]: Matroska
[Duration]: 1h 0mn
[Resolution]: 720 x 404 pixels
[Display aspect ratio]: 16:9
[Frame rate mode]: Constant
[Frame rate]: 23.976 fps





























Share this topic on FacebookShare this topic on GoogleShare this topic on MySpaceShare this topic on TwitterShare this topic on Yahoo



Thanks given by:


April 03, 2017, 11:33:06 AM
Reply #1
  • *****************
  • Head Admin
  • Legend Member
  • *****
  • Topic Author
  • Thank You: 6718
  • Reputation: 2938
  • Activity:
    63.6%
  • Country: in
  • Posts: 18836
  • Topics: 10956
  • Join Date: Mar 2012
  • The Time Is Now......
The Walking Dead S07E16 720p HDTV 475MB - NBY



INFO:

8.5/10 from 685,574 users
[FORMAT]:…………………….[ Matroska
[CODEC]:………………[ x264
[GENRE]:……………………[ Drama, Horror, Thriller
[AUDIO]:……………………[ AAC – 2CH
[FILE SIZE]:……………………[ 476 MB
[RESOLUTION]:……………….[ 1280×718
[FRAME RATE]:……………….[ 23.98 fps
[LANGUAGE]:…………………[ English
[SUBTITLES]:………………..[ None
[RUNTIME]:…………..[ 01:00:22
[ENCODER]:…………..[ NBY
[SOURCE]:…………………..[ PROPER.720p.HDTV.x264-KILLERS























April 03, 2017, 11:34:44 AM
Reply #2
  • *****************
  • Head Admin
  • Legend Member
  • *****
  • Topic Author
  • Thank You: 6718
  • Reputation: 2938
  • Activity:
    63.6%
  • Country: in
  • Posts: 18836
  • Topics: 10956
  • Join Date: Mar 2012
  • The Time Is Now......
The Walking Dead S07E16 PROPER 720p HDTV x265 HEVC 375MB - ShAaNiG

[VIDEO]:........................[ MKV - x265 HEVC
[AUDIO]:........................[ AAC - 2CH
[FILE SIZE]:....................[ 375MB
[RESOLUTION]:...................[ 1280x720
[LANGUAGE]:.....................[ English
[RUNTIME]:......................[ 1h
[ENCODER]:......................[ ShAaNiG
[SOURCE]:.......................[ PROPER.720p.HDTV-KILLERS


















April 03, 2017, 11:35:38 AM
Reply #3
  • *****************
  • Head Admin
  • Legend Member
  • *****
  • Topic Author
  • Thank You: 6718
  • Reputation: 2938
  • Activity:
    63.6%
  • Country: in
  • Posts: 18836
  • Topics: 10956
  • Join Date: Mar 2012
  • The Time Is Now......

The.Walking.Dead.S07E16.HDTV.XviD-FUM


[Format]: AVI
[Duration]: 1h 0mn
[Resolution]: 624 x 352 pixels
[Display aspect ratio]: 16:9
[Frame rate]: 23.976 fps































April 03, 2017, 11:37:01 AM
Reply #4
  • *****************
  • Head Admin
  • Legend Member
  • *****
  • Topic Author
  • Thank You: 6718
  • Reputation: 2938
  • Activity:
    63.6%
  • Country: in
  • Posts: 18836
  • Topics: 10956
  • Join Date: Mar 2012
  • The Time Is Now......
The.Walking.Dead.S07E16.720p.HDTV.x264-FLEET[PRiME]

Complete name : The.Walking.Dead.S07E16.720p.HDTV.x264-FLEET[PRiME].mkv
Format : Matroska
Format version : Version 2
File size : 1.58 GiB
Duration : 41 min 36 s
Overall bit rate : 5 443 kb/s
Writing application : x264.exe
Writing library : mkv2rls x264-tv version built on 2016.10.12

Video
ID : 1
Format : AVC
Format/Info : Advanced Video Codec
Format profile : [email protected]
Format settings, CABAC : Yes
Format settings, ReFrames : 5 frames
Codec ID : V_MPEG4/ISO/AVC
Duration : 41 min 36 s
Bit rate : 4 951 kb/s
Width : 1 280 pixels
Height : 720 pixels
Display aspect ratio : 16:9
Frame rate mode : Constant
Frame rate : 23.976 (24000/1001) FPS
Color space : YUV
Chroma subsampling : 4:2:0
Bit depth : 8 bits
Scan type : Progressive
Bits/(Pixel*Frame) : 0.224
Stream size : 1.44 GiB (91%)
Writing library : x264 core 148 r2762 90a61ec
Encoding settings : cabac=1 / ref=5 / deblock=1:0:0 / analyse=0x3:0x113 / me=umh / subme=9 / psy=1 / psy_rd=1.00:0.00 / mixed_ref=1 / me_range=16 / chroma_me=1 / trellis=2 / 8x8dct=1 / cqm=0 / deadzone=21,11 / fast_pskip=1 / chroma_qp_offset=-2 / threads=18 / lookahead_threads=1 / sliced_threads=0 / nr=0 / decimate=1 / interlaced=0 / bluray_compat=0 / constrained_intra=0 / bframes=3 / b_pyramid=2 / b_adapt=1 / b_bias=0 / direct=3 / weightb=1 / open_gop=0 / weightp=2 / keyint=250 / keyint_min=23 / scenecut=40 / intra_refresh=0 / rc_lookahead=50 / rc=crf / mbtree=1 / crf=18.0 / qcomp=0.60 / qpmin=0 / qpmax=69 / qpstep=4 / ip_ratio=1.40 / aq=1:1.00
Language : English
Default : Yes
Forced : No
Color range : Limited
Matrix coefficients : BT.709

Audio
ID : 2
Format : AC-3
Format/Info : Audio Coding 3
Mode extension : CM (complete main)
Format settings, Endianness : Big
Codec ID : A_AC3
Duration : 41 min 36 s
Bit rate mode : Constant
Bit rate : 384 kb/s
Channel(s) : 6 channels
Channel positions : Front: L C R, Side: L R, LFE
Sampling rate : 48.0 kHz
Frame rate : 31.250 FPS (1536 spf)
Compression mode : Lossy
Stream size : 114 MiB (7%)
Language : English
Default : Yes
Forced : No

Text
ID : 3
Format : UTF-8
Codec ID : S_TEXT/UTF8
Codec ID/Info : UTF-8 Plain Text
Title : English
Language : English
Default : No
Forced : No




























Tags:
 

Related Topics

  Subject / Started by Replies Last post
0 Replies
639 Views
Last post October 12, 2015, 06:39:35 PM
by [email protected]€€Z [email protected]
4 Replies
1040 Views
Last post November 17, 2015, 01:22:06 PM
by -Ð@Rk.ÐèVi£-
3 Replies
827 Views
Last post November 30, 2015, 10:37:51 AM
by -Ð@Rk.ÐèVi£-
4 Replies
1348 Views
Last post February 14, 2017, 08:10:28 AM
by -Ð@Rk.ÐèVi£-
1 Replies
979 Views
Last post March 06, 2017, 10:49:01 AM
by -Ð@Rk.ÐèVi£-




Back to top