+ ShareSpark.net »  :::: Hollywood Zone » Hollywood Movies (Original Rips) » Small Size Hollywood Movies
|- The Marine 5 Battleground (2017) 480p 650MB BDRip x264 - ROVERS


Amazon Fashion

The Marine 5 Battleground (2017) 480p 650MB BDRip x264 - ROVERS

0 Members and 1 Guest are viewing this topic.

April 08, 2017, 02:58:41 PM
  • Team SSX
  • Hot Member
  • ***
  • Topic Author
  • Thank You: 100
  • Reputation: 15
  • Activity:
    0%
  • Country: in
  • Posts: 572
  • Topics: 562
  • Join Date: Mar 2017
  • ShareSpark Member
The Marine 5 Battleground (2017) 480p 650MB BDRip x264 - ROVERS



Code: [Select]
IMDB:- http://www.imdb.com/title/tt5781798/
Format                                   : Matroska
Format version                           : Version 4 / Version 2
File size                                : 660 MiB
Duration                                 : 1 h 31 min
Overall bit rate                         : 1 007 kb/s

Video
ID                                       : 1
Format                                   : AVC
Format/Info                              : Advanced Video Codec
Format profile                           : [email protected]
Format settings, CABAC                   : Yes
Format settings, ReFrames                : 5 frames
Codec ID                                 : V_MPEG4/ISO/AVC
Duration                                 : 1 h 31 min
Bit rate                                 : 887 kb/s
Width                                    : 720 pixels
Height                                   : 406 pixels
Display aspect ratio                     : 16:9
Frame rate mode                          : Constant
Frame rate                               : 23.976 FPS
Color space                              : YUV
Chroma subsampling                       : 4:2:0
Bit depth                                : 8 bits
Scan type                                : Progressive
Bits/(Pixel*Frame)                       : 0.127
Stream size                              : 581 MiB (88%)
Title                                    : X264
Writing library                          : x264 core 148 r2744 b97ae06
Language                                 : English
Default                                  : Yes
Forced                                   : No
Color range                              : Limited
Matrix coefficients                      : BT.709

Audio
ID                                       : 2
Format                                   : AAC
Format/Info                              : Advanced Audio Codec
Format profile                           : LC
Codec ID                                 : A_AAC
Duration                                 : 1 h 31 min
Bit rate                                 : 118 kb/s
Channel(s)                               : 2 channels
Channel positions                        : Front: L R
Sampling rate                            : 48.0 kHz
Frame rate                               : 46.875 FPS (1024 spf)
Compression mode                         : Lossy
Stream size                              : 77.3 MiB (12%)
Language                                 : English
Default                                  : Yes
Forced                                   : No

Menu
00:00:00.000                             : en:00:00:00.000
00:04:53.793                             : en:00:04:53.793
00:10:28.044                             : en:00:10:28.044
00:17:43.312                             : en:00:17:43.312
00:22:28.597                             : en:00:22:28.597
00:26:59.660                             : en:00:26:59.660
00:31:01.359                             : en:00:31:01.359
00:36:44.119                             : en:00:36:44.119
00:41:30.780                             : en:00:41:30.780
00:47:43.194                             : en:00:47:43.194
00:53:52.229                             : en:00:53:52.229
01:00:29.501                             : en:01:00:29.501
01:06:54.636                             : en:01:06:54.636
01:13:35.036                             : en:01:13:35.036
01:19:06.742                             : en:01:19:06.742
01:24:13.006                             : en:01:24:13.006

Screenshots:-




Watch Online/Download :-

Code: [Select]
http://thevideo.me/0qrkfr5omr9k
http://vidup.me/uuul6gkfb9xv
https://www.flashx.tv/5ezovl954qbh.html
https://openload.co/f/l0a6941kDWo/The.Marine.5.Battleground.2017.mkv
http://streamin.to/o9tw488l68yv

Single Fast Direct Download :-
Code: [Select]
https://clicknupload.link/0ykd92wq9729
https://filescdn.com/zkzeb11ya7cn/The.Marine.5.Battleground.2017.mkv
[/B]

Share this topic on FacebookShare this topic on GoogleShare this topic on MySpaceShare this topic on TwitterShare this topic on Yahoo




Tags:
 

Related Topics

  Subject / Started by Replies Last post
0 Replies
744 Views
Last post March 16, 2017, 05:30:34 PM
by PSYCHO
0 Replies
539 Views
Last post March 30, 2017, 02:37:14 AM
by PSYCHO
0 Replies
682 Views
Last post March 30, 2017, 02:44:26 AM
by Off.CJ
1 Replies
707 Views
Last post April 08, 2017, 06:29:58 PM
by Vagabond
0 Replies
786 Views
Last post April 08, 2017, 02:57:00 PM
by exdking




Back to top