+ ShareSpark.net »  :::: Bollywood Zone » Regional Movies » Marathi Movies
|- Janiva 2015 1080p Untouched WebHD x264 AAC [TMB]


Redmi 6A

Janiva 2015 1080p Untouched WebHD x264 AAC [TMB]

0 Members and 1 Guest are viewing this topic.

April 25, 2017, 07:26:27 PM
  • Global Moderator
  • Legend Member
  • *****
  • Topic Author
  • Thank You: 13816
  • Reputation: 2812
  • Activity:
    76.8%
  • Country: in
  • Posts: 6102
  • Topics: 4989
  • Join Date: Jan 2014
  • ıllıllı ѕмoĸιng ιѕ good ғor нealтн ıllıllı :)




:info:

General
Complete name : Janiva 2015 1080p Untouched WebHD x264 AAC [TMB].MP4
Format : MPEG-4
Format profile : Base Media
Codec ID : isom (isom/iso2/avc1/mp41)
File size : 1.57 GiB
Duration : 1 h 44 min
Overall bit rate mode : Variable
Overall bit rate : 2 148 kb/s

Video
Format : AVC
Format/Info : Advanced Video Codec
Format profile : [email protected]
Format settings, CABAC : Yes
Format settings, ReFrames : 3 frames
Codec ID : avc1
Codec ID/Info : Advanced Video Coding
Duration : 1 h 44 min
Bit rate : 2 020 kb/s
Width : 1 920 pixels
Height : 1 080 pixels
Display aspect ratio : 16:9
Frame rate mode : Constant
Frame rate : 25.000 FPS
Color space : YUV
Chroma subsampling : 4:2:0
Bit depth : 8 bits
Scan type : Progressive
Bits/(Pixel*Frame) : 0.039
Stream size : 1.48 GiB (94%)

Audio
Format : AAC
Format/Info : Advanced Audio Codec
Format profile : LC
Codec ID : 40
Duration : 1 h 44 min
Bit rate mode : Variable
Bit rate : 126 kb/s
Channel(s) : 2 channels
Channel positions : Front: L R
Sampling rate : 44.1 kHz
Frame rate : 43.066 FPS (1024 spf)
Compression mode : Lossy
Stream size : 94.3 MiB (6%)


:ss:







:download:

Quote














Don't walk as you are king, walk as you don't care who the king is....!!
Never argue with an idiot. They drag you down to their level and then beat you with experience?

Share this topic on FacebookShare this topic on GoogleShare this topic on MySpaceShare this topic on TwitterShare this topic on Yahoo




Don't walk as you are king, walk as you don't care who the king is....!!

Thanks given by:


Tags:
 

Related Topics

  Subject / Started by Replies Last post
0 Replies
896 Views
Last post December 13, 2015, 09:10:07 AM
by -Ð@Rk.ÐèVi£-
1 Replies
752 Views
Last post January 21, 2017, 04:44:08 AM
by vish790
0 Replies
638 Views
Last post March 19, 2017, 08:47:07 AM
by Rάήνίјάч1234
1 Replies
880 Views
Last post April 27, 2017, 09:25:28 PM
by proyer
0 Replies
695 Views
Last post June 14, 2017, 02:29:29 AM
by -Tushar-




Back to top