+ ShareSpark.net »  :::: Bollywood Zone » Regional Movies » Marathi Movies
|- Khel Premacha 2014 1080p Untouched WebHD x264 AAC [TMB]


One Plus 6

Khel Premacha 2014 1080p Untouched WebHD x264 AAC [TMB]

0 Members and 1 Guest are viewing this topic.

April 25, 2017, 07:31:40 PM
  • Global Moderator
  • Legend Member
  • *****
  • Topic Author
  • Thank You: 13815
  • Reputation: 2812
  • Activity:
    76.8%
  • Country: in
  • Posts: 6102
  • Topics: 4989
  • Join Date: Jan 2014
  • ıllıllı ѕмoĸιng ιѕ good ғor нealтн ıllıllı :)




Khel Premacha 2014 1080p Untouched WebHD x264 AAC [TMB]

:info:

Format : MPEG-4
Format profile : Base Media
Codec ID : isom (isom/iso2/avc1/mp41)
File size : 1.30 GiB
Duration : 1 h 23 min
Overall bit rate mode : Variable
Overall bit rate : 2 222 kb/s

Video
Format : AVC
Format/Info : Advanced Video Codec
Format profile : [email protected]
Format settings, CABAC : Yes
Format settings, ReFrames : 3 frames
Codec ID : avc1
Codec ID/Info : Advanced Video Coding
Duration : 1 h 23 min
Bit rate : 2 093 kb/s
Width : 1 920 pixels
Height : 1 080 pixels
Display aspect ratio : 16:9
Frame rate mode : Constant
Frame rate : 25.000 FPS
Color space : YUV
Chroma subsampling : 4:2:0
Bit depth : 8 bits
Scan type : Progressive
Bits/(Pixel*Frame) : 0.040
Stream size : 1.22 GiB (94%)

Audio
Format : AAC
Format/Info : Advanced Audio Codec
Format profile : LC
Codec ID : 40
Duration : 1 h 23 min
Bit rate mode : Variable
Bit rate : 126 kb/s
Channel(s) : 2 channels
Channel positions : Front: L R
Sampling rate : 44.1 kHz
Frame rate : 43.066 FPS (1024 spf)
Compression mode : Lossy
Stream size : 75.2 MiB (6%)


:ss:






:download:

Quote














Don't walk as you are king, walk as you don't care who the king is....!!
Never argue with an idiot. They drag you down to their level and then beat you with experience?

Share this topic on FacebookShare this topic on GoogleShare this topic on MySpaceShare this topic on TwitterShare this topic on Yahoo

« Last Edit: April 25, 2017, 07:33:38 PM by Rάήνίјάч1234 »



Don't walk as you are king, walk as you don't care who the king is....!!

Thanks given by:


Tags:
 

Related Topics





Back to top