+ ShareSpark.net »  :::: Bollywood Zone » Regional Movies » Marathi Movies
|- Phuntroo 2016 720p WebHDRip x264 AAC [TMB] - 1.57 GB


One Plus 6

Phuntroo 2016 720p WebHDRip x264 AAC [TMB] - 1.57 GB

0 Members and 1 Guest are viewing this topic.

May 02, 2017, 02:32:18 PM
  • Global Moderator
  • Legend Member
  • *****
  • Topic Author
  • Thank You: 11189
  • Reputation: 2239
  • Activity:
    100%
  • Country: in
  • Posts: 5469
  • Topics: 4513
  • Join Date: Jan 2014
  • ıllıllı ѕмoĸιng ιѕ good ғor нealтн ıllıllı :)




Phuntroo 2016 720p WebHDRip x264 AAC [TMB] - 1.57 GB

Format : MPEG-4
Format profile : Base Media / Version 2
Codec ID : mp42 (isom/iso2/avc1/mp41)
File size : 1.57 GiB
Duration : 2 h 5 min
Overall bit rate mode : Variable
Overall bit rate : 1 794 kb/s

Video
Format : AVC
Format/Info : Advanced Video Codec
Format profile : [email protected]
Format settings, CABAC : Yes
Format settings, ReFrames : 4 frames
Codec ID : avc1
Codec ID/Info : Advanced Video Coding
Duration : 2 h 5 min
Bit rate : 1 622 kb/s
Width : 1 280 pixels
Height : 480 pixels
Display aspect ratio : 2.667
Frame rate mode : Variable
Frame rate : 24.767 FPS
Minimum frame rate : 0.083 FPS
Maximum frame rate : 25.000 FPS
Color space : YUV
Chroma subsampling : 4:2:0
Bit depth : 8 bits
Scan type : Progressive
Bits/(Pixel*Frame) : 0.107
Stream size : 1.42 GiB (91%)
Writing library : x264 core 148 r2708 86b7198

Audio
Format : AAC
Format/Info : Advanced Audio Codec
Format profile : LC
Codec ID : 40
Duration : 2 h 5 min
Bit rate mode : Variable
Bit rate : 162 kb/s
Channel(s) : 2 channels
Channel positions : Front: L R
Sampling rate : 48.0 kHz
Frame rate : 46.875 FPS (1024 spf)
Compression mode : Lossy
Stream size : 146 MiB (9%)










:download:

Quote










Quote




Don't walk as you are king, walk as you don't care who the king is....!!
Never argue with an idiot. They drag you down to their level and then beat you with experience?

Share this topic on FacebookShare this topic on GoogleShare this topic on MySpaceShare this topic on TwitterShare this topic on Yahoo




Don't walk as you are king, walk as you don't care who the king is....!!

Thanks given by:


February 23, 2018, 11:49:29 PM
Reply #1
  • Newbie
  • **
  • Thank You: 0
  • Reputation: 0
  • Activity:
    0%
  • Country: pl
  • Posts: 1
  • Topics: 0
  • Join Date: Oct 2016
  • ShareSpark Member
The movie looks very nice but links are dead. Please reupload.

Tags:
 

Related Topics

  Subject / Started by Replies Last post
0 Replies
1215 Views
Last post May 19, 2016, 06:00:29 AM
by -Ð@Rk.ÐèVi£-
0 Replies
517 Views
Last post May 02, 2017, 02:39:14 PM
by Rάήνίјάч1234
0 Replies
462 Views
Last post May 02, 2017, 02:49:10 PM
by Rάήνίјάч1234
0 Replies
613 Views
Last post May 02, 2017, 03:33:40 PM
by Rάήνίјάч1234
0 Replies
615 Views
Last post May 04, 2017, 07:39:09 PM
by Mr. MonsTer




Back to top