+ ShareSpark.net »  :::: Dubbed Zone (Dubbed English in Hindi) » English Movies Dubbed in Hindi
|- Passengers 2016 720p BluRay x264 Dual-Audio[Hindi(Org) AAC 2.0][English AAC 5.1] - Hon3y - 1.0 GB

Pantry 600 Back

Passengers 2016 720p BluRay x264 Dual-Audio[Hindi(Org) AAC 2.0][English AAC 5.1] - Hon3y - 1.0 GB

0 Members and 1 Guest are viewing this topic.

May 11, 2017, 12:19:22 PM
  • Global Moderator
  • Legend Member
  • *****
  • Topic Author
  • Thank You: 8493
  • Reputation: 1831
  • Activity:
    100%
  • Country: in
  • Posts: 4804
  • Topics: 3988
  • Join Date: Jan 2014
  • ıllıllı ѕмoĸιng ιѕ good ғor нealтн ıllıllı :)
Passengers 2016 720p BluRay x264 Dual-Audio[Hindi(Org) AAC 2.0][English AAC 5.1] - Hon3y - 1.0 GB



Quote
Format                      : Matroska
Format version              : Version 4 / Version 2
File size                   : 1.16 GiB
Duration                    : 1 h 56 min
Overall bit rate            : 1 428 kb/s
Movie name                  : Hon3yHD

Video
Format                      : AVC
Format/Info                 : Advanced Video Codec
Format profile              : [email protected]
Format settings, CABAC      : Yes
Format settings, ReFrames   : 12 frames
Codec ID                    : V_MPEG4/ISO/AVC
Duration                    : 1 h 56 min
Bit rate                    : 1 031 kb/s
Width                       : 1 280 pixels
Height                      : 536 pixels
Display aspect ratio        : 2.40:1
Frame rate mode             : Constant
Frame rate                  : 23.976 (24000/1001) FPS
Color space                 : YUV
Chroma subsampling          : 4:2:0
Bit depth                   : 8 bits
Scan type                   : Progressive
Bits/(Pixel*Frame)          : 0.063
Stream size                 : 857 MiB (72%)
Title                       : W3apoN-X...Hon3yHD

Hindi Audi Credits: Pasha - Thank u bro

Audio #1
Format                      : AAC
Format/Info                 : Advanced Audio Codec
Format profile              : LC
Codec ID                    : A_AAC
Duration                    : 1 h 56 min
Bit rate                    : 192 kb/s
Channel(s)                  : 2 channels
Channel positions           : Front: L R
Sampling rate               : 48.0 kHz
Frame rate                  : 46.875 FPS (1024 spf)
Compression mode            : Lossy
Delay relative to video     : 9 ms
Stream size                 : 157 MiB (13%)
Title                       :  [Hindi] AAC 2.0 192 Kbps---W3apoN-X...Hon3yHD
Language                    : Hindi

Audio #2
Format                      : AAC
Format/Info                 : Advanced Audio Codec
Format profile              : LC
Codec ID                    : A_AAC
Duration                    : 1 h 56 min
Bit rate                    : 128 kb/s
Channel(s)                  : 6 channels
Channel positions           : Front: L C R, Side: L R, LFE
Sampling rate               : 48.0 kHz
Frame rate                  : 46.875 FPS (1024 spf)
Compression mode            : Lossy
Delay relative to video     : 9 ms
Stream size                 : 106 MiB (9%)
Title                       : English AAC 5.1 128 Kbps---W3apoN-X...Hon3yHD
Language                    : English

Text #2
Format                      : PGS
Codec ID                    : S_HDMV/PGS
Codec ID/Info               : Picture based subtitle format used on BDs/HD-DVDs
Duration                    : 1 h 43 min
Bit rate                    : 36.4 kb/s
Count of elements           : 2474
Stream size                 : 26.8 MiB (2%)
Title                       : English---W3apoN-X...Hon3yHD
Language                    : English

Text #3
Format                      : PGS
Codec ID                    : S_HDMV/PGS
Codec ID/Info               : Picture based subtitle format used on BDs/HD-DVDs
Duration                    : 1 h 48 min
Bit rate                    : 46.0 kb/s
Count of elements           : 3240
Stream size                 : 35.6 MiB (3%)
Title                       : SDH-English---W3apoN-X...Hon3yHD
Language                    : English

Menu
00:00:00.000                : :Chapter 01
00:07:04.674                : :Chapter 02
00:14:38.210                : :Chapter 03
00:20:33.649                : :Chapter 04
00:25:06.338                : :Chapter 05
00:30:30.662                : :Chapter 06
00:40:47.987                : :Chapter 07
00:50:23.020                : :Chapter 08
00:57:28.945                : :Chapter 09
01:02:54.812                : :Chapter 10
01:10:47.159                : :Chapter 11
01:17:48.664                : :Chapter 12
01:25:17.028                : :Chapter 13
01:31:45.041                : :Chapter 14
01:37:53.242                : :Chapter 15
01:42:18.549                : :Chapter 16

:ss:




:download:

Quote













Don't walk as you are king, walk as you don't care who the king is....!!
Never argue with an idiot. They drag you down to their level and then beat you with experience?

Share this topic on FacebookShare this topic on GoogleShare this topic on MySpaceShare this topic on TwitterShare this topic on Yahoo

« Last Edit: May 11, 2017, 12:27:06 PM by Rάήνίјάч1234 »



Don't walk as you are king, walk as you don't care who the king is....!!

Thanks given by:


May 11, 2017, 10:33:31 PM
Reply #1
  • Hero Member
  • ***
  • Thank You: 6
  • Reputation: 5
  • Activity:
    1.4%
  • Country: in
  • Posts: 318
  • Topics: 7
  • Join Date: Mar 2012
  • ShareSpark Member.. Contact me 4 anything.

May 25, 2017, 12:57:10 PM
Reply #2
  • Elite Member
  • ***
  • Thank You: 0
  • Reputation: -1
  • Activity:
    0%
  • Posts: 428
  • Topics: 0
  • Join Date: Jun 2012
  • ShareSpark Member

Tags:
 

Related Topics




Back to top