+ ShareSpark.net »  :::: Bollywood Zone » Bollywood Movies (Original Rips)
|- Paan Singh Tomar 2012 Hindi 720p Dvdrip [1.6GB]


HDFC 10% Off

Paan Singh Tomar 2012 Hindi 720p Dvdrip [1.6GB]

0 Members and 1 Guest are viewing this topic.

July 03, 2017, 12:27:05 PM
  • Team SSX
  • Royal Member
  • ***
  • Topic Author
  • Thank You: 162
  • Reputation: 144
  • Activity:
    0.2%
  • Country: in
  • Posts: 925
  • Topics: 196
  • Join Date: Nov 2011
  • ShareSpark Member


Paan Singh Tomar 2012 Hindi 720p Dvdrip...AmirFarooqi

 :plot:
Paan Singh Tomar, an athlete, wins gold medals at the Indian National Games seven times in a row. He is forced to become a dacoit when his mother is murdered and the police don't take any action.

Movie Info:


Size Of MKV: 1.60GB
Source: DDR 720p
Release Date : 23 March 2012 (USA)
Genre: Action | Biography | Crime
Film Length: 135 MIN
Language: Hindi
Subtitle: English

 :info:
General
Unique ID : 305646045625865061336108865965230942880 (0xE5F14983AC9DB4D762DE8C0F2A186AA0)
Complete name : /root/Paan_Singh_Tomar_2012_Hindi_720p_DvdripAmirFarooqi.mkv
Format : Matroska
Format version : Version 2
File size : 1.60 GiB
Duration : 2h 15mn
Overall bit rate : 1 696 Kbps
Writing application : HandBrake 0.9.6
Writing library : libmkv 0.6.5

Video
ID : 1
Format : AVC
Format/Info : Advanced Video Codec
Format profile : [email protected]
Format settings, CABAC : Yes
Format settings, ReFrames : 5 frames
Codec ID : V_MPEG4/ISO/AVC
Duration : 2h 15mn
Bit rate : 1 500 Kbps
Width : 1 280 pixels
Height : 544 pixels
Display aspect ratio : 2.35:1
Frame rate mode : Constant
Frame rate : 23.976 (24000/1001) fps
Color space : YUV
Chroma subsampling : 4:2:0
Bit depth : 8 bits
Scan type : Progressive
Bits/(Pixel*Frame) : 0.090
Stream size : 1.39 GiB (87%)
Writing library : x264 core 120
Language : English
Default : Yes
Forced : No
Color range : Limited
Color primaries : BT.709
Transfer characteristics : BT.709
Matrix coefficients : BT.709

Audio
ID : 2
Format : AC-3
Format/Info : Audio Coding 3
Mode extension : CM (complete main)
Format settings, Endianness : Big
Codec ID : A_AC3
Duration : 2h 15mn
Bit rate mode : Constant
Bit rate : 192 Kbps
Channel(s) : 6 channels
Channel positions : Front: L C R, Side: L R, LFE
Sampling rate : 48.0 KHz
Frame rate : 31.250 fps (1536 spf)
Compression mode : Lossy
Stream size : 186 MiB (11%)
Language : Hindi
Default : Yes
Forced : No

Text
ID : 3
Format : UTF-8
Codec ID : S_TEXT/UTF8
Codec ID/Info : UTF-8 Plain Text
Language : English
Default : No
Forced : No

 :ss:








 :download:










Share this topic on FacebookShare this topic on GoogleShare this topic on MySpaceShare this topic on TwitterShare this topic on Yahoo

« Last Edit: July 03, 2017, 12:29:33 PM by -Tushar- »


:bounce:
  :bounce:

July 04, 2017, 03:18:58 PM
Reply #1
  • Semi Newbie
  • **
  • Thank You: 0
  • Reputation: 0
  • Activity:
    0%
  • Country: it
  • Posts: 13
  • Topics: 0
  • Join Date: Feb 2015
  • ShareSpark Member

Tags: paan singh tomar 2012 hindi DVDRip 
 

Related Topics





Back to top