+ ShareSpark.net »  :::: Bollywood Zone » Pakistani / Urdu Movies
|- 3 Bahadur - The Revenge of Baba Balaam 2016 - 720p - WEBHD - AVC - AAC - XMAD - 840MB


Amazon Pantry Offer

3 Bahadur - The Revenge of Baba Balaam 2016 - 720p - WEBHD - AVC - AAC - XMAD - 840MB

0 Members and 1 Guest are viewing this topic.

July 30, 2017, 09:09:36 PM
  • Semi Newbie
  • **
  • Topic Author
  • Thank You: 19
  • Reputation: 4
  • Activity:
    0%
  • Posts: 34
  • Topics: 10
  • Join Date: Jul 2012
  • ShareSpark Member

:title:
3 Bahadur - The Revenge of Baba Balaam 2016 - 720p - WEBHD - AVC - AAC - XMAD - 840MB

Exclusive By

[-=!XMAD!=-]




:imdb:
Quote

 :plot:
Quote
3 children now have a task of defeating babe balm who is rising again.

 :info:
Quote
General
Complete name                            : 3 Bahadur - The Revenge of Baba Balaam 2016 - 720p - WEBHD - AVC - AAC - XMAD.mp4
Format                                   : MPEG-4
Format profile                           : Base Media / Version 2
Codec ID                                 : mp42 (isom/mp42)
File size                                : 842 MiB
Duration                                 : 1 h 47 min
Overall bit rate mode                    : Variable
Overall bit rate                         : 1 096 kb/s
Encoded date                             : UTC 2017-07-29 18:22:33
Tagged date                              : UTC 2017-07-29 18:22:33
gsst                                     : 0
gstd                                     : 6439729

Video
ID                                       : 1
Format                                   : AVC
Format/Info                              : Advanced Video Codec
Format profile                           : [email protected]
Format settings, CABAC                   : Yes
Format settings, ReFrames                : 3 frames
Codec ID                                 : avc1
Codec ID/Info                            : Advanced Video Coding
Duration                                 : 1 h 47 min
Bit rate                                 : 967 kb/s
Width                                    : 1 280 pixels
Height                                   : 536 pixels
Display aspect ratio                     : 2.40:1
Frame rate mode                          : Constant
Frame rate                               : 24.000 FPS
Color space                              : YUV
Chroma subsampling                       : 4:2:0
Bit depth                                : 8 bits
Scan type                                : Progressive
Bits/(Pixel*Frame)                       : 0.059
Stream size                              : 743 MiB (88%)
Title                                    : ISO Media file produced by Google Inc.
Encoded date                             : UTC 2017-07-29 18:22:33
Tagged date                              : UTC 2017-07-29 18:22:33
Color range                              : Limited
Color primaries                          : BT.709
Transfer characteristics                 : BT.709
Matrix coefficients                      : BT.709

Audio
ID                                       : 2
Format                                   : AAC
Format/Info                              : Advanced Audio Codec
Format profile                           : LC
Codec ID                                 : 40
Duration                                 : 1 h 47 min
Source duration                          : 1 h 47 min
Bit rate mode                            : Variable
Bit rate                                 : 126 kb/s
Channel(s)                               : 2 channels
Channel positions                        : Front: L R
Sampling rate                            : 44.1 kHz
Frame rate                               : 43.066 FPS (1024 spf)
Compression mode                         : Lossy
Stream size                              : 96.4 MiB (11%)
Source stream size                       : 96.4 MiB (11%)
Title                                    : ISO Media file produced by Google Inc.
Encoded date                             : UTC 2017-07-29 18:22:33
Tagged date                              : UTC 2017-07-29 18:22:33


 :ss:



 :download:

Quote













Share this topic on FacebookShare this topic on GoogleShare this topic on MySpaceShare this topic on TwitterShare this topic on Yahoo



Thanks given by:


Tags:
 

Related Topics

  Subject / Started by Replies Last post
0 Replies
1476 Views
Last post July 23, 2017, 07:07:33 AM
by XMAD222
4 Replies
1563 Views
Last post August 06, 2017, 12:01:11 PM
by shahidimran
2 Replies
1411 Views
Last post August 06, 2017, 12:00:47 PM
by shahidimran
2 Replies
2106 Views
Last post January 26, 2018, 07:06:03 PM
by shahidimran
2 Replies
1453 Views
Last post January 26, 2018, 07:06:27 PM
by shahidimran




Back to top