+ ShareSpark.net »  :::: Hollywood Zone » Hollywood Movies (Original Rips) » High Resolution Movies
|- Guardians.Of.The.Galaxy.Vol2.2017.1080p.BluRay.x264-[YTS.AG] [2GB]


Redmi 6A

Guardians.Of.The.Galaxy.Vol2.2017.1080p.BluRay.x264-[YTS.AG] [2GB]

0 Members and 1 Guest are viewing this topic.

August 09, 2017, 04:23:28 PM
  • Team SSX
  • Royal Member
  • ***
  • Topic Author
  • Thank You: 162
  • Reputation: 144
  • Activity:
    0%
  • Country: in
  • Posts: 925
  • Topics: 196
  • Join Date: Nov 2011
  • ShareSpark Member


Guardians.Of.The.Galaxy.Vol2.2017.1080p.BluRay.x264-[YTS.AG]

 :plot:
Peter Quill and his fellow Guardians are hired by a powerful alien race, the Sovereign, to protect their precious batteries from invaders. When it is discovered that Rocket has stolen the items they were sent to guard, the Sovereign dispatch their armada to search for vengeance. As the Guardians try to escape, the mystery of Peter's parentage is revealed.

 :info:
General
Complete name : files/Guardians.Of.The.Galaxy.Vol2.2017.1080p.BluRay.x264-[YTS.AG].mp4
Format : MPEG-4
Format profile : Base Media
Codec ID : isom (isom/iso2/avc1/mp41)
File size : 2.07 GiB
Duration : 2 h 15 min
Overall bit rate : 2 179 kb/s
Writing application : Lavf57.48.101

Video
ID : 1
Format : AVC
Format/Info : Advanced Video Codec
Format profile : [email protected]
Format settings, CABAC : Yes
Format settings, ReFrames : 4 frames
Codec ID : avc1
Codec ID/Info : Advanced Video Coding
Duration : 2 h 15 min
Bit rate : 2 050 kb/s
Width : 1 920 pixels
Height : 800 pixels
Display aspect ratio : 2.40:1
Frame rate mode : Constant
Frame rate : 23.976 FPS
Color space : YUV
Chroma subsampling : 4:2:0
Bit depth : 8 bits
Scan type : Progressive
Bits/(Pixel*Frame) : 0.056
Stream size : 1.94 GiB (94%)
Writing library : x264 core 148
Encoding settings : cabac=1 / ref=4 / deblock=1:-1:-1 / analyse=0x3:0x133 / me=umh / subme=9 / psy=1 / psy_rd=1.00:0.15 / mixed_ref=1 / me_range=24 / chroma_me=1 / trellis=2 / 8x8dct=1 / cqm=0 / deadzone=21,11 / fast_pskip=0 / chroma_qp_offset=-3 / threads=12 / lookahead_threads=1 / sliced_threads=0 / nr=0 / decimate=1 / interlaced=0 / bluray_compat=0 / constrained_intra=0 / bframes=3 / b_pyramid=2 / b_adapt=2 / b_bias=0 / direct=3 / weightb=1 / open_gop=0 / weightp=2 / keyint=250 / keyint_min=23 / scenecut=40 / intra_refresh=0 / rc_lookahead=60 / rc=2pass / mbtree=1 / bitrate=2050 / ratetol=1.0 / qcomp=0.60 / qpmin=0 / qpmax=69 / qpstep=4 / cplxblur=20.0 / qblur=0.5 / vbv_maxrate=31250 / vbv_bufsize=31250 / nal_hrd=none / filler=0 / ip_ratio=1.40 / aq=1:1.00

Audio
ID : 2
Format : AAC
Format/Info : Advanced Audio Codec
Format profile : LC
Codec ID : 40
Duration : 2 h 15 min
Bit rate mode : Constant
Bit rate : 122 kb/s
Channel(s) : 2 channels
Channel positions : Front: L R
Sampling rate : 48.0 kHz
Frame rate : 46.875 FPS (1024 spf)
Compression mode : Lossy
Stream size : 119 MiB (6%)
Default : Yes
Alternate group : 1

 :ss:


 :download:





Share this topic on FacebookShare this topic on GoogleShare this topic on MySpaceShare this topic on TwitterShare this topic on Yahoo



:bounce:
  :bounce:

Thanks given by:


August 09, 2017, 07:47:32 PM
Reply #1
  • Begginer
  • **
  • Thank You: 3
  • Reputation: 4
  • Activity:
    0%
  • Country: pk
  • Posts: 66
  • Topics: 3
  • Join Date: Dec 2015
  • ShareSpark Member

 

Related Topics





Back to top