+ ShareSpark.net »  :::: Bollywood Zone » Regional Movies » Punjabi Movies
|- RABB DA RADIO - 2017 - 720p - WEBHD - AVC - AAC -Ranvijay - 1.0 GB


RABB DA RADIO - 2017 - 720p - WEBHD - AVC - AAC -Ranvijay - 1.0 GB

0 Members and 1 Guest are viewing this topic.

August 10, 2017, 02:16:52 AM
  • Global Moderator
  • Legend Member
  • *****
  • Topic Author
  • Thank You: 13821
  • Reputation: 2813
  • Activity:
    76.8%
  • Country: in
  • Posts: 6102
  • Topics: 4989
  • Join Date: Jan 2014
  • ıllıllı ѕмoĸιng ιѕ good ғor нealтн ıllıllı :)
RABB DA RADIO - 2017 - 720p - WEBHD - AVC - AAC -Ranvijay - 1.0 GB



 :info:

Quote
Format                                   : MPEG-4
Format profile                           : Base Media / Version 2
Codec ID                                 : mp42 (isom/mp42)
File size                                : 1 021 MiB
Duration                                 : 1 h 59 min
Overall bit rate mode                    : Variable
Overall bit rate                         : 1 191 kb/s
Encoded date                             : UTC 2017-08-09 12:14:51
Tagged date                              : UTC 2017-08-09 12:14:51
gsst                                     : 0
gstd                                     : 7189269

Video
ID                                       : 1
Format                                   : AVC
Format/Info                              : Advanced Video Codec
Format profile                           : [email protected]
Format settings, CABAC                   : Yes
Format settings, RefFrames               : 3 frames
Codec ID                                 : avc1
Codec ID/Info                            : Advanced Video Coding
Duration                                 : 1 h 59 min
Bit rate                                 : 1 062 kb/s
Width                                    : 1 280 pixels
Height                                   : 720 pixels
Display aspect ratio                     : 16:9
Frame rate mode                          : Constant
Frame rate                               : 24.000 FPS
Color space                              : YUV
Chroma subsampling                       : 4:2:0
Bit depth                                : 8 bits
Scan type                                : Progressive
Bits/(Pixel*Frame)                       : 0.048
Stream size                              : 910 MiB (89%)
Title                                    : ISO Media file produced by Google Inc.
Encoded date                             : UTC 2017-08-09 12:14:51
Tagged date                              : UTC 2017-08-09 12:14:51
Color range                              : Limited
Color primaries                          : BT.709
Transfer characteristics                 : BT.709
Matrix coefficients                      : BT.709

Audio
ID                                       : 2
Format                                   : AAC
Format/Info                              : Advanced Audio Codec
Format profile                           : LC
Codec ID                                 : 40
Duration                                 : 1 h 59 min
Bit rate mode                            : Variable
Bit rate                                 : 126 kb/s
Channel(s)                               : 2 channels
Channel positions                        : Front: L R
Sampling rate                            : 44.1 kHz
Frame rate                               : 43.066 FPS (1024 SPF)
Compression mode                         : Lossy
Stream size                              : 108 MiB (11%)

 :ss:








 :download:

Quote






















Don't walk as you are king, walk as you don't care who the king is....!!
Never argue with an idiot. They drag you down to their level and then beat you with experience?

Share this topic on FacebookShare this topic on GoogleShare this topic on MySpaceShare this topic on TwitterShare this topic on Yahoo




Don't walk as you are king, walk as you don't care who the king is....!!

August 11, 2017, 12:15:36 AM
Reply #1
  • Semi Newbie
  • **
  • Thank You: 0
  • Reputation: 0
  • Activity:
    0%
  • Country: pk
  • Posts: 8
  • Topics: 0
  • Join Date: Aug 2017
  • ShareSpark Member

Tags:
 

Related Topics

  Subject / Started by Replies Last post
1 Replies
1255 Views
Last post April 08, 2017, 11:13:00 PM
by neelt
0 Replies
1248 Views
Last post April 10, 2017, 04:38:18 AM
by PSYCHO
1 Replies
1336 Views
Last post July 14, 2017, 07:14:09 AM
by 1974477447
1 Replies
1183 Views
Last post August 14, 2017, 05:41:02 PM
by honey01
1 Replies
1297 Views
Last post September 05, 2017, 05:30:36 PM
by jaskran




Back to top