+ ShareSpark.net »  :::: Bollywood Zone » Bollywood Movies (Original Rips)
|- M S Dhoni: The Untold Story (2016) Hindi - 720p BluRay - x265 HEVC ShAaNiG [1.2GB]

Subscribe and Save

M S Dhoni: The Untold Story (2016) Hindi - 720p BluRay - x265 HEVC ShAaNiG [1.2GB]

0 Members and 1 Guest are viewing this topic.

August 23, 2017, 12:05:12 AM
  • Team SSX
  • Royal Member
  • ***
  • Topic Author
  • Thank You: 160
  • Reputation: 144
  • Activity:
    0.4%
  • Country: in
  • Posts: 925
  • Topics: 196
  • Join Date: Nov 2011
  • ShareSpark Member


M S Dhoni: The Untold Story (2016) Hindi - 720p BluRay - x265 HEVC - 1 2GB - ShAaNiG

 :plot:
Ranchi lad M S Dhoni aspires to play cricket for India. Though he initially tries to please his father by taking up a job with the Indian Railways, he ultimately decides to chase his dreams.

 :info:
General
Unique ID : 193419579328407407639419812537641763532 (0x91834186FBCCF7FA913BEA5C146082CC)
Complete name : files/M.S.Dhoni.2016.Hindi.720p.BluRay.x265.ShAaNiG.mkv
Format : Matroska
Format version : Version 2
File size : 1.20 GiB
Duration : 3 h 4 min
Overall bit rate : 927 kb/s
Encoded date : UTC 2017-01-05 02:46:51
Writing application : mkvmerge v7.8.0 ('River Man') 32bit built on Mar 27 2015 16:18:02
Writing library : libebml v1.3.1 + libmatroska v1.4.2

Video
ID : 1
Format : HEVC
Format/Info : High Efficiency Video Coding
Format profile : [email protected]@Main
Codec ID : V_MPEGH/ISO/HEVC
Duration : 3 h 4 min
Bit rate : 862 kb/s
Width : 1 280 pixels
Height : 536 pixels
Display aspect ratio : 2.40:1
Frame rate mode : Constant
Frame rate : 24.000 FPS
Color space : YUV
Chroma subsampling : 4:2:0
Bit depth : 8 bits
Bits/(Pixel*Frame) : 0.052
Stream size : 1.11 GiB (93%)
Writing library : x265 1.8+2-55a4a9b920ff:[Windows][GCC 5.2.0][64 bit] 8bit+10bit+12bit
Encoding settings : wpp / ctu=64 / min-cu-size=8 / max-tu-size=32 / tu-intra-depth=1 / tu-inter-depth=1 / me=1 / subme=2 / merange=57 / no-rect / no-amp / max-merge=2 / temporal-mvp / no-early-skip / rdpenalty=0 / no-tskip / no-tskip-fast / strong-intra-smoothing / no-lossless / no-cu-lossless / no-constrained-intra / no-fast-intra / open-gop / no-temporal-layers / interlace=0 / keyint=250 / min-keyint=24 / scenecut=40 / rc-lookahead=20 / lookahead-slices=0 / bframes=4 / bframe-bias=0 / b-adapt=2 / ref=3 / limit-refs=0 / weightp / no-weightb / aq-mode=1 / qg-size=32 / aq-strength=1.00 / cbqpoffs=0 / crqpoffs=0 / rd=3 / psy-rd=0.30 / rdoq-level=0 / psy-rdoq=0.00 / signhide / deblock / sao / no-sao-non-deblock / b-pyramid / cutree / rc=2 / pass / bitrate=861 / qcomp=0.60 / qpmin=0 / qpmax=51 / qpstep=4 / cplxblur=20.0 / qblur=0.5 / ipratio=1.40 / pbratio=1.30
Default : Yes
Forced : No

Audio
ID : 2
Format : AAC
Format/Info : Advanced Audio Codec
Format profile : HE-AAC / LC
Codec ID : A_AAC
Duration : 3 h 4 min
Bit rate : 63.7 kb/s
Channel(s) : 2 channels
Channel positions : Front: L R
Sampling rate : 48.0 kHz / 24.0 kHz
Frame rate : 23.438 FPS (1024 SPF)
Compression mode : Lossy
Delay relative to video : 31 ms
Stream size : 84.2 MiB (7%)
Language : Hindi
Default : Yes
Forced : No

 :ss:






 :download:










Share this topic on FacebookShare this topic on GoogleShare this topic on MySpaceShare this topic on TwitterShare this topic on Yahoo



:bounce:
  :bounce:

 

Related Topics

  Subject / Started by Replies Last post
0 Replies
515 Views
Last post November 26, 2016, 07:50:51 AM
by sharing_caring
0 Replies
705 Views
Last post December 27, 2016, 07:07:21 PM
by wroser
0 Replies
457 Views
Last post December 28, 2016, 01:04:42 PM
by PSYCHO
0 Replies
687 Views
Last post December 30, 2016, 09:18:24 PM
by DjiSamSoe
0 Replies
1170 Views
Last post January 06, 2017, 07:38:47 PM
by PSYCHO



Back to top