+ ShareSpark.net »  :::: Bollywood Zone » Regional Movies » Marathi Movies
|- Court 2015 MARATHI 1080p Upscaled DVDRip x264 AAC [TMB] 2.54GB

10% Off Cashback Carnival

Court 2015 MARATHI 1080p Upscaled DVDRip x264 AAC [TMB] 2.54GB

0 Members and 1 Guest are viewing this topic.

September 30, 2017, 09:43:42 PM
  • Elite Moderator
  • Legend Member
  • ****
  • Topic Author
  • Thank You: 1998
  • Reputation: 286
  • Activity:
    3.6%
  • Country: in
  • Posts: 3722
  • Topics: 2854
  • Join Date: Sep 2016
  • (: EnJOy D LiFe :)
Court 2015 - 1080p Upscaled DVDRip x264 AAC TMB



 :info:

Video
Format : AVC
Format/Info : Advanced Video Codec
Format profile : [email protected]
Format settings, CABAC : Yes
Format settings, ReFrames : 4 frames
Codec ID : avc1
Codec ID/Info : Advanced Video Coding
Duration : 1h 55mn
Bit rate : 2 787 Kbps
Width : 1 920 pixels
Height : 952 pixels
Display aspect ratio : 2.017
Frame rate mode : Variable
Frame rate : 29.970 (29970/1000) fps
Minimum frame rate : 3.746 fps
Maximum frame rate : 29.970 fps
Original frame rate : 29.970 (30000/1001) fps
Color space : YUV
Chroma subsampling : 4:2:0
Bit depth : 8 bits
Scan type : Progressive
Bits/(Pixel*Frame) : 0.051
Stream size : 2.25 GiB (89%)
Writing library : x264 core 146 r2538 121396c

Audio #1
Format : AC-3
Format/Info : Audio Coding 3
Mode extension : CM (complete main)
Format settings, Endianness : Big
Codec ID : ac-3
Duration : 1h 55mn
Bit rate mode : Constant
Bit rate : 128 Kbps
Channel(s) : 6 channels
Channel positions : Front: L C R, Side: L R, LFE
Sampling rate : 48.0 KHz
Frame rate : 31.250 fps (1536 spf)
Bit depth : 16 bits
Compression mode : Lossy
Stream size : 106 MiB (4%)
Language : unk
Default : Yes

Audio #2
Format : AC-3
Format/Info : Audio Coding 3
Mode extension : CM (complete main)
Format settings, Endianness : Big
Codec ID : ac-3
Duration : 1h 55mn
Bit rate mode : Constant
Bit rate : 224 Kbps
Channel(s) : 2 channels
Channel positions : Front: L R
Sampling rate : 48.0 KHz
Frame rate : 31.250 fps (1536 spf)
Bit depth : 16 bits
Compression mode : Lossy
Stream size : 185 MiB (7%)
Language : unk
Default : No

Source : [email protected]
Ripper : Manojvb


 :ss:














 :download:









Sample :




Share this topic on FacebookShare this topic on GoogleShare this topic on MySpaceShare this topic on TwitterShare this topic on Yahoo



* BUSY *

Thanks given by:


Tags:
 

Related Topics

  Subject / Started by Replies Last post
0 Replies
651 Views
Last post August 22, 2015, 11:05:01 PM
by -Ð@Rk.ÐèVi£-
0 Replies
536 Views
Last post August 23, 2015, 09:03:03 AM
by тнє ωαll 81317
0 Replies
610 Views
Last post September 01, 2015, 01:24:03 PM
by -Ð@Rk.ÐèVi£-
0 Replies
682 Views
Last post December 07, 2015, 11:27:18 PM
by shreecds
0 Replies
752 Views
Last post December 22, 2015, 10:09:37 AM
by -Ð@Rk.ÐèVi£-



Back to top