+ ShareSpark.net »  :::: Hollywood Zone » TV Shows
|- Arrow.S06E01.HDTV.x264-LOL


Arrow.S06E01.HDTV.x264-LOL

0 Members and 1 Guest are viewing this topic.

October 13, 2017, 07:57:21 AM
  • *****************
  • Head Admin
  • Legend Member
  • *****
  • Topic Author
  • Thank You: 6074
  • Reputation: 2666
  • Activity:
    100%
  • Country: in
  • Posts: 18070
  • Topics: 10734
  • Join Date: Mar 2012
  • The Time Is Now......
Arrow.S06E01.HDTV.x264-LOL

Complete name : arrow.601.hdtv-lol.mkv
Format : Matroska
Format version : Version 4 / Version 2
File size : 294 MiB
Duration : 42 min 26 s
Overall bit rate : 968 kb/s
Encoded date : UTC 2017-10-12 15:21:06
Writing application : mkvmerge v16.0.0 ('Protest') 64-bit
Writing library : libebml v1.3.5 + libmatroska v1.4.8

Video
ID : 1
Format : AVC
Format/Info : Advanced Video Codec
Format profile : [email protected]
Format settings, CABAC : Yes
Format settings, ReFrames : 5 frames
Codec ID : V_MPEG4/ISO/AVC
Duration : 42 min 26 s
Bit rate : 850 kb/s
Width : 720 pixels
Height : 404 pixels
Display aspect ratio : 16:9
Frame rate mode : Constant
Frame rate : 23.976 (24000/1001) FPS
Color space : YUV
Chroma subsampling : 4:2:0
Bit depth : 8 bits
Scan type : Progressive
Bits/(Pixel*Frame) : 0.122
Stream size : 258 MiB (88%)
Language : English
Default : Yes
Forced : No
Color range : Limited
Matrix coefficients : BT.709

Audio
ID : 2
Format : AAC
Format/Info : Advanced Audio Codec
Format profile : LC
Codec ID : A_AAC
Duration : 42 min 26 s
Bit rate : 116 kb/s
Channel(s) : 2 channels
Channel positions : Front: L R
Sampling rate : 48.0 kHz
Frame rate : 46.875 FPS (1024 spf)
Compression mode : Lossy
Delay relative to video : 9 ms
Stream size : 35.1 MiB (12%)
Default : Yes
Forced : No

































Share this topic on FacebookShare this topic on GoogleShare this topic on MySpaceShare this topic on TwitterShare this topic on Yahoo

« Last Edit: October 14, 2017, 07:43:52 PM by тнє ωαll 81317 »


Thanks given by:


October 13, 2017, 07:58:49 AM
Reply #1
  • *****************
  • Head Admin
  • Legend Member
  • *****
  • Topic Author
  • Thank You: 6074
  • Reputation: 2666
  • Activity:
    100%
  • Country: in
  • Posts: 18070
  • Topics: 10734
  • Join Date: Mar 2012
  • The Time Is Now......

Arrow.S06E01.720p.HDTV.X264-DIMENSION


[Format]: Matroska
[Duration]: 42mn 26s
[Resolution]: 1 280 x 720 pixels
[Display aspect ratio]: 16:9
[Frame rate mode]: Constant
[Frame rate]: 23.976 fps




































Tags:
 

Related Topics

  Subject / Started by Replies Last post
0 Replies
616 Views
Last post June 17, 2013, 01:46:14 PM
by up4y
1 Replies
531 Views
Last post June 24, 2015, 07:27:46 PM
by Abhinav00789
0 Replies
626 Views
Last post April 27, 2016, 06:49:16 AM
by s¡lєит_αssαss¡и
3 Replies
725 Views
Last post November 18, 2016, 09:23:48 AM
by -Ð@Rk.ÐèVi£-
0 Replies
314 Views
Last post October 13, 2017, 10:10:23 AM
by ~~Ank!t~~



Back to top