+ ShareSpark.net »  :::: Bollywood Zone » Regional Movies » Marathi Movies
|- Hrudayantar 2017 MARATHI 720p Untouched YouTubeHD x264 AAC ESubs [Saket Exclusive] 971MB


100% Recharge Offer

Hrudayantar 2017 MARATHI 720p Untouched YouTubeHD x264 AAC ESubs [Saket Exclusive] 971MB

0 Members and 1 Guest are viewing this topic.

October 13, 2017, 01:52:59 PM
  • Elite Moderator
  • Legend Member
  • ****
  • Topic Author
  • Thank You: 2000
  • Reputation: 286
  • Activity:
    0%
  • Country: in
  • Posts: 3722
  • Topics: 2854
  • Join Date: Sep 2016
  • (: EnJOy D LiFe :)
Hrudayantar 2017 MARATHI 720p Untouched YouTubeHD x264 AAC ESubs Saket Exclusive



 :info:

Video
Format : AVC
Format/Info : Advanced Video Codec
Format profile : [email protected]1
Format settings : CABAC / 3 Ref Frames
Format settings, CABAC : Yes
Format settings, RefFrames : 3 frames
Codec ID : avc1
Codec ID/Info : Advanced Video Coding
Duration : 1 h 47 min
Bit rate : 1 133 kb/s
Width : 1 280 pixels
Height : 720 pixels
Display aspect ratio : 16:9
Frame rate mode : Constant
Frame rate : 30.000 FPS
Color space : YUV
Chroma subsampling : 4:2:0
Bit depth : 8 bits
Scan type : Progressive
Bits/(Pixel*Frame) : 0.041
Stream size : 869 MiB (89%)

Audio
Format : AAC
Format/Info : Advanced Audio Codec
Format profile : LC
Codec ID : mp4a-40-2
Duration : 1 h 47 min
Bit rate mode : Constant
Bit rate : 126 kb/s
Channel(s) : 2 channels
Channel positions : Front: L R
Sampling rate : 44.1 kHz
Frame rate : 43.066 FPS (1024 SPF)
Compression mode : Lossy
Stream size : 96.3 MiB (10%)


 :ss:










 :download:
















Share this topic on FacebookShare this topic on GoogleShare this topic on MySpaceShare this topic on TwitterShare this topic on Yahoo



* BUSY *

Thanks given by:


Tags:
 

Related Topics





Back to top