+ ShareSpark.net »  :::: Dubbed Zone (Dubbed English in Hindi) » English Movies Dubbed in Hindi
|- Knocked Up 2007 720p Esub BluRay Dual Audio English Hindi GOPISAHI


Knocked Up 2007 720p Esub BluRay Dual Audio English Hindi GOPISAHI

0 Members and 1 Guest are viewing this topic.

October 21, 2017, 07:42:22 AM
  • Addic7ed
  • Special Member
  • ****
  • Topic Author
  • Thank You: 404
  • Reputation: 91
  • Activity:
    0%
  • Country: in
  • Posts: 816
  • Topics: 771
  • Join Date: Oct 2013
  • ShareSpark Member

Format                         : Matroska
Format version                 : Version 4 / Version 2
File size                      : 722 MiB
Duration                       : 2 h 12 min
Overall bit rate               : 760 kb/s
Movie name                     : Knocked Up 2007

Video
Format                         : AVC
Codec ID                       : V_MPEG4/ISO/AVC
Duration                       : 2 h 12 min
Bit rate                       : 615 kb/s
Width                          : 1 280 pixels
Height                         : 688 pixels
Display aspect ratio           : 1.85:1
Frame rate mode                : Constant
Frame rate                     : 23.976 (24000/1001) FPS
Stream size                    : 584 MiB (81%)
Writing library                : x264 core 114 r1913 5fd3dce

Audio #1
Format                         : AAC
Duration                       : 2 h 12 min
Bit rate                       : 64.1 kb/s
Channel(s)                     : 6 channels
Channel positions              : Front: L C R, Side: L R, LFE
Sampling rate                  : 44.1 kHz
Frame rate                     : 43.066 FPS (1024 SPF)
Stream size                    : 61.0 MiB (8%)
Language                       : English

Audio #2
Format                         : AAC
Duration                       : 2 h 12 min
Bit rate                       : 78.3 kb/s
Channel(s)                     : 2 channels
Channel positions              : Front: L R
Sampling rate                  : 44.1 kHz
Frame rate                     : 43.066 FPS (1024 SPF)
Compression mode               : Lossy
Stream size                    : 74.5 MiB (10%)
Language                       : Hindi

Text
ID                             : 3
Language                       : English










Share this topic on FacebookShare this topic on GoogleShare this topic on MySpaceShare this topic on TwitterShare this topic on Yahoo



Thanks given by:


Tags:
 

Related Topics

  Subject / Started by Replies Last post
0 Replies
825 Views
Last post September 03, 2017, 06:57:31 AM
by jattsahi2
0 Replies
675 Views
Last post October 20, 2017, 06:31:04 AM
by jattsahi2
0 Replies
666 Views
Last post October 20, 2017, 06:36:59 AM
by jattsahi2
0 Replies
699 Views
Last post October 22, 2017, 03:56:59 PM
by jattsahi2
0 Replies
347 Views
Last post February 14, 2019, 04:30:26 PM
by shahzaibjaan




Back to top