+ ShareSpark.net »  :::: Bollywood Zone » Regional Movies » Marathi Movies
|- Mumbai Pune Mumbai 2010 MARATHI 1CD BRRip x264 AAC ESubs [TMB] 702MB


HDFC 10% Off
  • Mumbai Pune Mumbai 2010 MARATHI 1CD BRRip x264 AAC ESubs [TMB] 702MB 5 1
Currently:  

Mumbai Pune Mumbai 2010 MARATHI 1CD BRRip x264 AAC ESubs [TMB] 702MB

0 Members and 1 Guest are viewing this topic.

October 22, 2017, 01:23:58 PM
  • Elite Moderator
  • Legend Member
  • ****
  • Topic Author
  • Thank You: 2000
  • Reputation: 287
  • Activity:
    0%
  • Country: in
  • Posts: 3722
  • Topics: 2854
  • Join Date: Sep 2016
  • (: EnJOy D LiFe :)
Mumbai Pune Mumbai 2010 1CD BRRip x264 AAC ESubs TMB



 :info:

Video
Format : AVC
Format/Info : Advanced Video Codec
Format profile : [email protected]
Format settings : CABAC / 4 Ref Frames
Format settings, CABAC : Yes
Format settings, RefFrames : 4 frames
Codec ID : avc1
Codec ID/Info : Advanced Video Coding
Duration : 1 h 46 min
Bit rate : 753 kb/s
Width : 720 pixels
Height : 300 pixels
Display aspect ratio : 2.40:1
Original display aspect rat : 2.40:1
Frame rate mode : Variable
Frame rate : 24.000 FPS
Minimum frame rate : 12.000 FPS
Maximum frame rate : 24.000 FPS
Color space : YUV
Chroma subsampling : 4:2:0
Bit depth : 8 bits
Scan type : Progressive
Bits/(Pixel*Frame) : 0.145
Stream size : 575 MiB (82%)
Writing library : x264 core 148 r2708 86b7198

Audio
Format : AAC
Format/Info : Advanced Audio Codec
Format profile : LC
Codec ID : mp4a-40-2
Duration : 1 h 46 min
Bit rate mode : Variable
Bit rate : 160 kb/s
Channel(s) : 2 channels
Channel positions : Front: L R
Sampling rate : 48.0 kHz
Frame rate : 46.875 FPS (1024 SPF)
Compression mode : Lossy
Stream size : 123 MiB (17%)


Source : [email protected]@DUS

Ripper : TeamTMB


 :ss:










 :download:


















Share this topic on FacebookShare this topic on GoogleShare this topic on MySpaceShare this topic on TwitterShare this topic on Yahoo

« Last Edit: October 22, 2017, 01:27:21 PM by PSYCHO »


* BUSY *

Thanks given by:


Tags:
 

Related Topics

  Subject / Started by Replies Last post
0 Replies
882 Views
Last post November 25, 2015, 11:06:14 AM
by rflxn143
3 Replies
1143 Views
Last post December 21, 2015, 06:52:35 AM
by r8u
0 Replies
912 Views
Last post October 22, 2017, 01:25:59 PM
by PSYCHO
1 Replies
1373 Views
Last post February 23, 2018, 04:42:27 AM
by tamilcinemaaz
0 Replies
1137 Views
Last post January 09, 2018, 08:47:10 AM
by eerwerw




Back to top