+ ShareSpark.net »  :::: Bollywood Zone » Regional Movies » Marathi Movies
|- Mumbai Pune Mumbai 2010 MARATHI 1080p BRRip x264 AC3 5.1 ESubs [TMB] 2.92GB


100% Recharge Offer
  • Mumbai Pune Mumbai 2010 MARATHI 1080p BRRip x264 AC3 5.1 ESubs [TMB] 2.92GB 5 1
Currently:  

Mumbai Pune Mumbai 2010 MARATHI 1080p BRRip x264 AC3 5.1 ESubs [TMB] 2.92GB

0 Members and 1 Guest are viewing this topic.

October 22, 2017, 03:11:53 PM
  • Elite Moderator
  • Legend Member
  • ****
  • Topic Author
  • Thank You: 2000
  • Reputation: 287
  • Activity:
    0%
  • Country: in
  • Posts: 3722
  • Topics: 2854
  • Join Date: Sep 2016
  • (: EnJOy D LiFe :)
Mumbai Pune Mumbai 2010 1080p BRRip x264 AC3 5.1 ESubs TMB



 :info:

Format : AVC
Format/Info : Advanced Video Codec
Format profile : [email protected]
Format settings : CABAC / 4 Ref Frames
Format settings, CABAC : Yes
Format settings, RefFrames : 4 frames
Codec ID : avc1
Codec ID/Info : Advanced Video Coding
Duration : 1 h 46 min
Bit rate : 3 279 kb/s
Width : 1 920 pixels
Height : 802 pixels
Display aspect ratio : 2.40:1
Frame rate mode : Variable
Frame rate : 24.000 FPS
Minimum frame rate : 12.000 FPS
Maximum frame rate : 24.000 FPS
Color space : YUV
Chroma subsampling : 4:2:0
Bit depth : 8 bits
Scan type : Progressive
Bits/(Pixel*Frame) : 0.089
Stream size : 2.44 GiB (84%)
Writing library : x264 core 148 r2708 86b7198

Audio
Format : AC-3
Format/Info : Audio Coding 3
Format settings, Endianness : Big
Codec ID : ac-3
Duration : 1 h 46 min
Bit rate mode : Constant
Bit rate : 640 kb/s
Channel(s) : 6 channels
Channel positions : Front: L C R, Side: L R, LFE
Sampling rate : 48.0 kHz
Frame rate : 31.250 FPS (1536 SPF)
Bit depth : 16 bits
Compression mode : Lossy
Stream size : 490 MiB (16%)

Audio : Marathi

Source : [email protected]@DUS

Ripper : TeamTMB


 :ss:










 :download:











Share this topic on FacebookShare this topic on GoogleShare this topic on MySpaceShare this topic on TwitterShare this topic on Yahoo



* BUSY *

Thanks given by:


February 23, 2018, 04:42:27 AM
Reply #1
  • Semi Newbie
  • **
  • Thank You: 0
  • Reputation: 0
  • Activity:
    0%
  • Country: in
  • Posts: 9
  • Topics: 0
  • Join Date: Jan 2018
  • ShareSpark Member

Tags:
 

Related Topics

  Subject / Started by Replies Last post
0 Replies
882 Views
Last post November 25, 2015, 11:06:14 AM
by rflxn143
0 Replies
866 Views
Last post October 22, 2017, 01:23:58 PM
by PSYCHO
0 Replies
912 Views
Last post October 22, 2017, 01:25:59 PM
by PSYCHO
6 Replies
1943 Views
Last post January 21, 2018, 11:21:41 AM
by hemant83
0 Replies
1137 Views
Last post January 09, 2018, 08:47:10 AM
by eerwerw




Back to top