+ ShareSpark.net »  :::: Dubbed Zone (Dubbed English in Hindi) » TV Shows (Dubbed in Hindi)
|- House Of Cards Season 1 480p Untouched Netflix Rip Hindi 2.0 ~ Ranvijay - [Episode 3 & 4]


Mastercard 10% Off

House Of Cards Season 1 480p Untouched Netflix Rip Hindi 2.0 ~ Ranvijay - [Episode 3 & 4]

0 Members and 1 Guest are viewing this topic.

October 25, 2017, 02:45:31 PM
  • Global Moderator
  • Legend Member
  • *****
  • Topic Author
  • Thank You: 10747
  • Reputation: 2171
  • Activity:
    100%
  • Country: in
  • Posts: 5355
  • Topics: 4423
  • Join Date: Jan 2014
  • ıllıllı ѕмoĸιng ιѕ good ғor нealтн ıllıllı :)
House Of Cards Season 1 480p Untouched Netflix Rip Hindi 2.0 ~ Ranvijay - [Episode 1 & 2]



Quote
Format                                   : Mp4
File size                                : 322 MiB
Duration                                 : 56 min 39 s
Overall bit rate                         : 795 kb/s
Movie name                               : Chapter 1
Encoded date                             : UTC 2017-10-25 06:40:25
Tagged date                              : UTC 2017-10-25 06:40:25
Cover                                    : Yes

Video
ID                                       : 2
Format                                   : AVC
Format/Info                              : Advanced Video Codec
Format profile                           : [email protected]
Format settings                          : CABAC / 2 Ref Frames
Format settings, CABAC                   : Yes
Format settings, RefFrames               : 2 frames
Format settings, GOP                     : M=1, N=24
Codec ID                                 : avc1
Codec ID/Info                            : Advanced Video Coding
Duration                                 : 56 min 39 s
Bit rate                                 : 728 kb/s
Width                                    : 720 pixels
Height                                   : 480 pixels
Display aspect ratio                     : 16:9
Original display aspect ratio            : 16:9
Frame rate mode                          : Constant
Frame rate                               : 23.976 (23976/1000) FPS
Color space                              : YUV
Chroma subsampling                       : 4:2:0
Bit depth                                : 8 bits
Scan type                                : Progressive
Bits/(Pixel*Frame)                       : 0.088
Stream size                              : 295 MiB (91%)
Encoded date                             : UTC 2017-10-25 06:40:25
Tagged date                              : UTC 2017-10-25 06:40:25

Audio
ID                                       : 1
Format                                   : AAC
Format/Info                              : Advanced Audio Codec
Format profile                           : HE-AAC / LC
Format settings                          : Implicit
Codec ID                                 : mp4a-40-2
Duration                                 : 56 min 39 s
Bit rate                                 : 64.0 kb/s
Channel(s)                               : 2 channels
Channel positions                        : Front: L R
Sampling rate                            : 48.0 kHz / 24.0 kHz
Frame rate                               : 23.438 FPS (1024 SPF)
Compression mode                         : Lossy
Stream size                              : 25.9 MiB (8%)
Encoded date                             : UTC 2017-10-25 06:40:25
Tagged date                              : UTC 2017-10-25 06:40:25

:ss:



:download:

Quote




























File Leeched & Uploaded From




Don't walk as you are king, walk as you don't care who the king is....!!
Never argue with an idiot. They drag you down to their level and then beat you with experience?

Share this topic on FacebookShare this topic on GoogleShare this topic on MySpaceShare this topic on TwitterShare this topic on Yahoo

« Last Edit: October 25, 2017, 02:46:14 PM by Rάήνίјάч1234 »



Don't walk as you are king, walk as you don't care who the king is....!!

Tags:
 

Related Topics





Back to top