+ ShareSpark.net »  :::: Bollywood Zone » Regional Movies » Marathi Movies
|- Tula Kalnnaar Nahi 2017 MARATHI 720p WebHDRip x264 AAC [TMB] 1.46GB

Mobile Recharge Offer 20% Off

Tula Kalnnaar Nahi 2017 MARATHI 720p WebHDRip x264 AAC [TMB] 1.46GB

0 Members and 1 Guest are viewing this topic.

November 02, 2017, 03:36:04 PM
  • Elite Moderator
  • Legend Member
  • ****
  • Topic Author
  • Thank You: 1998
  • Reputation: 286
  • Activity:
    3.6%
  • Country: in
  • Posts: 3722
  • Topics: 2854
  • Join Date: Sep 2016
  • (: EnJOy D LiFe :)
Tula Kalnnaar Nahi 2017 720p WebHDRip x264 AAC TMB



 :info:

Video
Format : AVC
Format/Info : Advanced Video Codec
Format profile : [email protected]
Format settings : CABAC / 4 Ref Frames
Format settings, CABAC : Yes
Format settings, RefFrames : 4 frames
Codec ID : avc1
Codec ID/Info : Advanced Video Coding
Duration : 2 h 0 min
Bit rate : 1 542 kb/s
Width : 1 280 pixels
Height : 544 pixels
Display aspect ratio : 2.35:1
Frame rate mode : Variable
Frame rate : 23.976 (23976/1000) FPS
Minimum frame rate : 11.987 FPS
Maximum frame rate : 23.981 FPS
Color space : YUV
Chroma subsampling : 4:2:0
Bit depth : 8 bits
Scan type : Progressive
Bits/(Pixel*Frame) : 0.092
Stream size : 1.29 GiB (89%)
Writing library : x264 core 148 r2708 86b7198

Audio
Format : AC-3
Format/Info : Audio Coding 3
Format settings, Endianness : Big
Codec ID : ac-3
Duration : 2 h 0 min
Bit rate mode : Constant
Bit rate : 192 kb/s
Channel(s) : 2 channels
Channel positions : Front: L R
Sampling rate : 48.0 kHz
Frame rate : 31.250 FPS (1536 SPF)
Bit depth : 16 bits
Compression mode : Lossy
Stream size : 166 MiB (11%)


 :ss:












 :download:


Note : Audio Out of Sync













Note : Audio Out of Sync




Share this topic on FacebookShare this topic on GoogleShare this topic on MySpaceShare this topic on TwitterShare this topic on Yahoo

« Last Edit: November 02, 2017, 06:53:56 PM by PSYCHO »


* BUSY *

Thanks given by:


November 03, 2017, 12:37:57 AM
Reply #1
  • Newbie
  • **
  • Thank You: 0
  • Reputation: 0
  • Activity:
    0%
  • Country: in
  • Posts: 3
  • Topics: 0
  • Join Date: Nov 2017
  • ShareSpark Member

Tags:
 

Related Topics

  Subject / Started by Replies Last post
0 Replies
632 Views
Last post October 08, 2015, 08:57:51 AM
by ♥♫ ŘÃŇĎỖϻ ŘĮĎỖЎ ♥♫
1 Replies
661 Views
Last post March 30, 2017, 09:50:02 PM
by proyer
2 Replies
1030 Views
Last post October 21, 2017, 09:23:15 PM
by proyer
2 Replies
938 Views
Last post November 03, 2017, 12:38:31 AM
by Rάήνίјάч1234
0 Replies
748 Views
Last post November 02, 2017, 03:32:12 PM
by PSYCHO



Back to top