+ ShareSpark.net »  :::: Dubbed Zone (Dubbed English in Hindi) » TV Shows (Dubbed in Hindi)
|- Super Monsters SEASON 1 Complete 720p WEBRip Dual Audio [Hindi + English] DD 5.0 - Esub ~Ranvijay


Super Monsters SEASON 1 Complete 720p WEBRip Dual Audio [Hindi + English] DD 5.0 - Esub ~Ranvijay

0 Members and 1 Guest are viewing this topic.

November 02, 2017, 06:03:36 PM
  • Legend
  • Legend Member
  • ***
  • Topic Author
  • Thank You: 14095
  • Reputation: 2874
  • Activity:
    59%
  • Country: in
  • Posts: 6151
  • Topics: 5034
  • Join Date: Jan 2014
  • ıllıllı ѕмoĸιng ιѕ good ғor нealтн ıllıllı :)


Super Monsters SEASON 1 Complete 720p WEBRip Dual Audio [Hindi + English] DD 5.0 - Esub ~Ranvijay




Quote
Format                                   : Matroska
Format version                           : Version 4 / Version 2
File size                                : 496 MiB
Overall bit rate mode                    : Variable
Overall bit rate                         : 2 999 kb/s

Video
ID                                       : 1
Format                                   : AVC
Format/Info                              : Advanced Video Codec
Format profile                           : [email protected]
Format settings                          : CABAC / 3 Ref Frames
Format settings, CABAC                   : Yes
Format settings, RefFrames               : 3 frames
Codec ID                                 : V_MPEG4/ISO/AVC
Duration                                 : 23 min 6 s
Bit rate mode                            : Variable
Bit rate                                 : 2 229 kb/s
Nominal bit rate                         : 2 370 kb/s
Maximum bit rate                         : 3 555 kb/s
Width                                    : 1 280 pixels
Height                                   : 720 pixels
Display aspect ratio                     : 16:9
Frame rate mode                          : Constant
Frame rate                               : 23.976 (24000/1001) FPS
Color space                              : YUV
Chroma subsampling                       : 4:2:0
Bit depth                                : 8 bits
Scan type                                : Progressive
Bits/(Pixel*Frame)                       : 0.101
Stream size                              : 368 MiB (74%)
Title                                    : ~Ranvijay~
Default                                  : Yes
Forced                                   : No

Audio #1
ID                                       : 2
Format                                   : AC-3
Format/Info                              : Audio Coding 3
Format settings, Endianness              : Big
Codec ID                                 : A_AC3
Bit rate mode                            : Constant
Bit rate                                 : 384 kb/s
Channel(s)                               : 6 channels
Channel positions                        : Front: L C R, Side: L R, LFE
Sampling rate                            : 48.0 kHz
Frame rate                               : 31.250 FPS (1536 SPF)
Bit depth                                : 16 bits
Compression mode                         : Lossy
Stream size                              : 63.5 MiB (13%)
Title                                    : ~Ranvijay~
Language                                 : English
Service kind                             : Complete Main
Default                                  : No
Forced                                   : No

Audio #2
ID                                       : 4
Format                                   : AC-3
Format/Info                              : Audio Coding 3
Format settings, Endianness              : Big
Codec ID                                 : A_AC3
Bit rate mode                            : Constant
Bit rate                                 : 384 kb/s
Channel(s)                               : 6 channels
Channel positions                        : Front: L C R, Side: L R, LFE
Sampling rate                            : 48.0 kHz
Frame rate                               : 31.250 FPS (1536 SPF)
Bit depth                                : 16 bits
Compression mode                         : Lossy
Stream size                              : 63.5 MiB (13%)
Title                                    : ~Ranvijay~
Language                                 : Hindi
Service kind                             : Complete Main
Default                                  : Yes
Forced                                   : No

Text #1
ID                                       : 3
Format                                   : UTF-8
Codec ID                                 : S_TEXT/UTF8
Codec ID/Info                            : UTF-8 Plain Text
Duration                                 : 21 min 0 s
Bit rate                                 : 77 b/s
Count of elements                        : 397
Stream size                              : 12.0 KiB (0%)
Title                                    : ~Ranvijay~
Language                                 : English
Default                                  : No
Forced                                   : No


















:download:

Super Monsters S01E01 720p WEBRip Dual Audio [Hindi + English] DD 5.0 - Esub ~Ranvijay~

Quote














Super Monsters S01E02 720p WEBRip Dual Audio [Hindi + English] DD 5.0 - Esub ~Ranvijay~

Quote














Super Monsters S01E03 720p WEBRip Dual Audio [Hindi + English] DD 5.0 - Esub ~Ranvijay~

Quote













Super Monsters S01E04 720p WEBRip Dual Audio [Hindi + English] DD 5.0 - Esub ~Ranvijay~

Quote













Super Monsters S01E05 720p WEBRip Dual Audio [Hindi + English] DD 5.0 - Esub ~Ranvijay~

Quote














Super Monsters S01E06 720p WEBRip Dual Audio [Hindi + English] DD 5.0 - Esub ~Ranvijay~

Quote














Super Monsters S01E07 720p WEBRip Dual Audio [Hindi + English] DD 5.0 - Esub ~Ranvijay~

Quote














Super Monsters S01E08 720p WEBRip Dual Audio [Hindi + English] DD 5.0 - Esub ~Ranvijay~

Quote














Super Monsters S01E09 720p WEBRip Dual Audio [Hindi + English] DD 5.0 - Esub ~Ranvijay~

Quote














Super Monsters S01E10 720p WEBRip Dual Audio [Hindi + English] DD 5.0 - Esub ~Ranvijay~

Quote














File Leeched & Uploaded From




Don't walk as you are king, walk as you don't care who the king is....!!
Never argue with an idiot. They drag you down to their level and then beat you with experience?

Share this topic on FacebookShare this topic on GoogleShare this topic on MySpaceShare this topic on TwitterShare this topic on Yahoo




Don't walk as you are king, walk as you don't care who the king is....!!

Thanks given by:


Tags:
 

Related Topics





Back to top