+ ShareSpark.net »  :::: Bollywood Zone » Regional Movies » Marathi Movies
|- Baapjanma 2017 1CD WebRip x264 AAC [TMB]


Electroncs Sale

Baapjanma 2017 1CD WebRip x264 AAC [TMB]

0 Members and 1 Guest are viewing this topic.

November 11, 2017, 10:21:41 PM
  • Global Moderator
  • Legend Member
  • *****
  • Topic Author
  • Thank You: 11257
  • Reputation: 2258
  • Activity:
    100%
  • Country: in
  • Posts: 5485
  • Topics: 4528
  • Join Date: Jan 2014
  • ıllıllı ѕмoĸιng ιѕ good ғor нealтн ıllıllı :)
Baapjanma 2017 1CD WebRip x264 AAC [TMB]


:info:

Quote
Format : MPEG-4
Format profile : Base Media / Version 2
Codec ID : mp42 (isom/iso2/avc1/mp41)
File size : 703 MiB
Duration : 2 h 1 min
Overall bit rate mode : Variable
Overall bit rate : 812 kb/s

Video
Format : AVC
Format/Info : Advanced Video Codec
Format profile : [email protected]
Format settings : CABAC / 4 Ref Frames
Format settings, CABAC : Yes
Format settings, ReFrames : 4 frames
Codec ID : avc1
Codec ID/Info : Advanced Video Coding
Duration : 2 h 1 min
Bit rate : 646 kb/s
Width : 720 pixels
Height : 304 pixels
Display aspect ratio : 2.35:1
Original display aspect rat : 2.35:1
Frame rate mode : Variable
Frame rate : 28.906 FPS
Minimum frame rate : 14.985 FPS
Maximum frame rate : 29.970 FPS
Color space : YUV
Chroma subsampling : 4:2:0
Bit depth : 8 bits
Scan type : Progressive
Bits/(Pixel*Frame) : 0.102
Stream size : 559 MiB (80%)
Writing library : x264 core 148 r2708 86b7198

Audio
Format : AAC
Format/Info : Advanced Audio Codec
Format profile : LC
Codec ID : mp4a-40-2
Duration : 2 h 1 min
Bit rate mode : Variable
Bit rate : 160 kb/s
Channel(s) : 2 channels
Channel positions : Front: L R
Sampling rate : 48.0 kHz
Frame rate : 46.875 FPS (1024 SPF)
Compression mode : Lossy
Stream size : 138 MiB (20%)

:ss:








:download:

Quote













File Leeched & Uploaded From




Don't walk as you are king, walk as you don't care who the king is....!!
Never argue with an idiot. They drag you down to their level and then beat you with experience?

Share this topic on FacebookShare this topic on GoogleShare this topic on MySpaceShare this topic on TwitterShare this topic on Yahoo




Don't walk as you are king, walk as you don't care who the king is....!!

Thanks given by:


Tags:
 

Related Topics

  Subject / Started by Replies Last post
0 Replies
833 Views
Last post August 27, 2017, 12:49:02 PM
by jamez.bond.3304
0 Replies
559 Views
Last post August 31, 2017, 11:53:00 PM
by Rάήνίјάч1234
0 Replies
613 Views
Last post September 02, 2017, 06:59:17 PM
by jamez.bond.3304
0 Replies
903 Views
Last post November 11, 2017, 10:06:58 PM
by Rάήνίјάч1234
0 Replies
1120 Views
Last post November 11, 2017, 10:30:32 PM
by Rάήνίјάч1234




Back to top