+ ShareSpark.net »  :::: Bollywood Zone » Regional Movies » Marathi Movies
|- Baapjanma 2017 1080p WebHDRip x264 AAC [TMB]


10% SBI and 10% Discount

Baapjanma 2017 1080p WebHDRip x264 AAC [TMB]

0 Members and 1 Guest are viewing this topic.

November 11, 2017, 10:30:32 PM
  • Global Moderator
  • Legend Member
  • *****
  • Topic Author
  • Thank You: 10071
  • Reputation: 2077
  • Activity:
    100%
  • Country: in
  • Posts: 5233
  • Topics: 4319
  • Join Date: Jan 2014
  • ıllıllı ѕмoĸιng ιѕ good ғor нealтн ıllıllı :)
Baapjanma 2017 1080p WebHDRip x264 AAC [TMB]



:info:

Quote
Format : MPEG-4
Format profile : Base Media / Version 2
Codec ID : mp42 (isom/iso2/avc1/mp41)
File size : 3.15 GiB
Duration : 2 h 1 min
Overall bit rate mode : Variable
Overall bit rate : 3 724 kb/s

Video
Format : AVC
Format/Info : Advanced Video Codec
Format profile : [email protected]
Format settings : CABAC / 4 Ref Frames
Format settings, CABAC : Yes
Format settings, ReFrames : 4 frames
Codec ID : avc1
Codec ID/Info : Advanced Video Coding
Duration : 2 h 1 min
Bit rate : 3 460 kb/s
Width : 1 920 pixels
Height : 812 pixels
Display aspect ratio : 2.35:1
Frame rate mode : Variable
Frame rate : 28.906 FPS
Minimum frame rate : 14.985 FPS
Maximum frame rate : 29.970 FPS
Color space : YUV
Chroma subsampling : 4:2:0
Bit depth : 8 bits
Scan type : Progressive
Bits/(Pixel*Frame) : 0.077
Stream size : 2.91 GiB (92%)
Writing library : x264 core 148 r2708 86b7198

Audio
Format : AAC
Format/Info : Advanced Audio Codec
Format profile : LC
Codec ID : mp4a-40-2
Duration : 2 h 1 min
Bit rate mode : Variable
Bit rate : 281 kb/s
Channel(s) : 2 channels
Channel positions : Front: L R
Sampling rate : 48.0 kHz
Frame rate : 46.875 FPS (1024 SPF)
Compression mode : Lossy
Stream size : 244 MiB (8%)

:ss:








:download:

Quote









File Leeched & Uploaded From




Don't walk as you are king, walk as you don't care who the king is....!!
Never argue with an idiot. They drag you down to their level and then beat you with experience?

Share this topic on FacebookShare this topic on GoogleShare this topic on MySpaceShare this topic on TwitterShare this topic on Yahoo




Don't walk as you are king, walk as you don't care who the king is....!!

Thanks given by:


Tags:
 

Related Topics

  Subject / Started by Replies Last post
0 Replies
641 Views
Last post April 19, 2017, 01:04:17 PM
by Rάήνίјάч1234
0 Replies
584 Views
Last post April 23, 2017, 05:04:47 AM
by PSYCHO
2 Replies
1096 Views
Last post November 03, 2017, 12:38:31 AM
by Rάήνίјάч1234
0 Replies
816 Views
Last post November 11, 2017, 10:06:58 PM
by Rάήνίјάч1234
0 Replies
837 Views
Last post November 11, 2017, 10:21:41 PM
by Rάήνίјάч1234




Back to top