+ ShareSpark.net »  :::: Bollywood Zone » Regional Movies » Marathi Movies
|- Muramba 2017 MARATHI 720p Untouched WebDL x264 AAC ESubs [TMB] 2.96GB GD Link...


100% Bill Offer

Muramba 2017 MARATHI 720p Untouched WebDL x264 AAC ESubs [TMB] 2.96GB GD Link...

0 Members and 1 Guest are viewing this topic.

December 17, 2017, 04:26:03 PM
  • Elite Moderator
  • Legend Member
  • ****
  • Topic Author
  • Thank You: 2000
  • Reputation: 287
  • Activity:
    0%
  • Country: in
  • Posts: 3722
  • Topics: 2854
  • Join Date: Sep 2016
  • (: EnJOy D LiFe :)
Muramba 2017 MARATHI 720p Untouched WebDL x264 AAC ESubs TMB



 :info:

Video
Format : AVC
Format/Info : Advanced Video Codec
Format profile : [email protected]
Format settings : CABAC / 2 Ref Frames
Format settings, CABAC : Yes
Format settings, ReFrames : 2 frames
Format settings, GOP : M=1, N=12
Codec ID : V_MPEG4/ISO/AVC
Duration : 2 h 7 min
Bit rate : 3 221 kb/s
Width : 1 280 pixels
Height : 720 pixels
Display aspect ratio : 16:9
Frame rate mode : Constant
Frame rate : 24.000 FPS
Color space : YUV
Chroma subsampling : 4:2:0
Bit depth : 8 bits
Scan type : Progressive
Bits/(Pixel*Frame) : 0.146
Stream size : 2.87 GiB (97%)

Audio
Format : AAC
Format/Info : Advanced Audio Codec
Format profile : HE-AAC / LC
Format settings : Implicit
Codec ID : A_AAC-2
Duration : 2 h 7 min
Bit rate : 96.0 kb/s
Channel(s) : 2 channels
Channel positions : Front: L R
Sampling rate : 48.0 kHz / 24.0 kHz
Frame rate : 23.438 FPS (1024 SPF)
Compression mode : Lossy
Delay relative to video : -42 ms
Stream size : 87.6 MiB (3%)

Text
Format : UTF-8
Codec ID : S_TEXT/UTF8
Codec ID/Info : UTF-8 Plain Text
Duration : 2 h 2 min
Bit rate : 67 b/s
Count of elements : 2129
Stream size : 60.6 KiB (0%)
Audio : Marathi

by TeamTMB


 :ss:








 :download:













Share this topic on FacebookShare this topic on GoogleShare this topic on MySpaceShare this topic on TwitterShare this topic on Yahoo

« Last Edit: December 17, 2017, 05:01:13 PM by PSYCHO »


* BUSY *

Thanks given by:


Tags:
 

Related Topics

  Subject / Started by Replies Last post
0 Replies
566 Views
Last post August 21, 2017, 03:00:42 PM
by Rάήνίјάч1234
0 Replies
1068 Views
Last post October 13, 2017, 01:52:59 PM
by PSYCHO
2 Replies
1281 Views
Last post December 17, 2017, 03:49:27 PM
by TeamTMB
0 Replies
1082 Views
Last post December 17, 2017, 03:58:48 PM
by PSYCHO
0 Replies
1133 Views
Last post December 17, 2017, 04:56:02 PM
by PSYCHO




Back to top