+ ShareSpark.net »  :::: Bollywood Zone » Regional Movies » Marathi Movies
|- Muramba 2017 MARATHI 1080p NFHDRip x264 AAC ESubs [TMB] 2.93GB GD Link...


100% Recharge Offer

Muramba 2017 MARATHI 1080p NFHDRip x264 AAC ESubs [TMB] 2.93GB GD Link...

0 Members and 1 Guest are viewing this topic.

December 17, 2017, 04:56:02 PM
  • Elite Moderator
  • Legend Member
  • ****
  • Topic Author
  • Thank You: 1999
  • Reputation: 286
  • Activity:
    3.6%
  • Country: in
  • Posts: 3722
  • Topics: 2854
  • Join Date: Sep 2016
  • (: EnJOy D LiFe :)
Muramba 2017 MARATHI 1080p NFHDRip x264 AAC ESubs TMB



 :info:

Video
Format : AVC
Format/Info : Advanced Video Codec
Format profile : [email protected]
Format settings : CABAC / 4 Ref Frames
Format settings, CABAC : Yes
Format settings, ReFrames : 4 frames
Codec ID : avc1
Codec ID/Info : Advanced Video Coding
Duration : 2 h 7 min
Bit rate : 3 126 kb/s
Width : 1 920 pixels
Height : 810 pixels
Display aspect ratio : 2.40:1
Frame rate mode : Constant
Frame rate : 24.000 FPS
Color space : YUV
Chroma subsampling : 4:2:0
Bit depth : 8 bits
Scan type : Progressive
Bits/(Pixel*Frame) : 0.084
Stream size : 2.78 GiB (95%)
Writing library : x264 core 148 r2708 86b7198

Audio
Format : AAC
Format/Info : Advanced Audio Codec
Format profile : LC
Codec ID : mp4a-40-2
Duration : 2 h 7 min
Bit rate mode : Variable
Bit rate : 160 kb/s
Channel(s) : 2 channels
Channel positions : Front: L R
Sampling rate : 48.0 kHz
Frame rate : 46.875 FPS (1024 SPF)
Compression mode : Lossy
Stream size : 146 MiB (5%)

Text
Format : Timed Text
Muxing mode : sbtl
Codec ID : tx3g
Duration : 2 h 3 min
Bit rate mode : Variable
Bit rate : 80 b/s
Stream size : 72.7 KiB (0%)
Audio : Marathi

Source : 720p Untouched NF Source@TeamTMB
Ripper : TeamTMB


 :ss:








 :download:
















Share this topic on FacebookShare this topic on GoogleShare this topic on MySpaceShare this topic on TwitterShare this topic on Yahoo

« Last Edit: December 17, 2017, 09:00:34 PM by PSYCHO »


* BUSY *

Thanks given by:


Tags:
 

Related Topics

  Subject / Started by Replies Last post
0 Replies
514 Views
Last post August 21, 2017, 03:00:42 PM
by Rάήνίјάч1234
2 Replies
1178 Views
Last post December 17, 2017, 03:49:27 PM
by TeamTMB
0 Replies
970 Views
Last post December 17, 2017, 03:58:48 PM
by PSYCHO
0 Replies
813 Views
Last post December 17, 2017, 04:26:03 PM
by PSYCHO
0 Replies
899 Views
Last post January 05, 2018, 01:34:17 PM
by PSYCHO




Back to top