+ ShareSpark.net »  :::: Dubbed Zone (Dubbed English in Hindi) » English Movies Dubbed in Hindi
|- Lionheart 1990 DC 720p Esub BluRay Dual Audio English Hindi GOPISAHI

Pantry 600 Back

Lionheart 1990 DC 720p Esub BluRay Dual Audio English Hindi GOPISAHI

0 Members and 1 Guest are viewing this topic.

January 05, 2018, 08:22:33 AM
  • Addic7ed
  • Special Member
  • ****
  • Topic Author
  • Thank You: 395
  • Reputation: 90
  • Activity:
    9.2%
  • Country: in
  • Posts: 815
  • Topics: 770
  • Join Date: Oct 2013
  • ShareSpark Member

Format                         : Matroska
Format version                 : Version 4 / Version 2
File size                      : 538 MiB
Duration                       : 1 h 50 min
Overall bit rate               : 682 kb/s
Movie name                     : Lionheart 1990

Video
Format                         : AVC
Codec ID                       : V_MPEG4/ISO/AVC
Duration                       : 1 h 50 min
Bit rate                       : 500 kb/s
Width                          : 1 280 pixels
Height                         : 688 pixels
Display aspect ratio           : 1.85:1
Frame rate mode                : Constant
Frame rate                     : 23.976 (24000/1001) FPS
Stream size                    : 394 MiB (73%)
Writing library                : x264 core 152 r2851 ba24899

Audio #1
Format                         : AAC
Duration                       : 1 h 50 min
Bit rate                       : 96.0 kb/s
Channel(s)                     : 6 channels
Channel positions              : Front: L C R, Side: L R, LFE
Sampling rate                  : 44.1 kHz
Frame rate                     : 43.066 FPS (1024 SPF)
Compression mode               : Lossy
Stream size                    : 76.0 MiB (14%)
Language                       : English

Audio #2
Format                         : AAC
Duration                       : 1 h 50 min
Bit rate                       : 83.5 kb/s
Channel(s)                     : 6 channels
Channel positions              : Front: L C R, Side: L R, LFE
Sampling rate                  : 44.1 kHz
Frame rate                     : 43.066 FPS (1024 SPF)
Compression mode               : Lossy
Stream size                    : 65.9 MiB (12%)
Language                       : Hindi

Text
Language                       : English





Share this topic on FacebookShare this topic on GoogleShare this topic on MySpaceShare this topic on TwitterShare this topic on Yahoo




Tags:
 

Related Topics




Back to top