+ ShareSpark.net »  :::: Bollywood Zone » Regional Movies » Marathi Movies
|- 15+ Sunrise 2014 MARATHI NFDC 720p Web-DL x264 AAC ESubs [TMB] 2.49GB GD Link...

10% Off Cashback Carnival

15+ Sunrise 2014 MARATHI NFDC 720p Web-DL x264 AAC ESubs [TMB] 2.49GB GD Link...

0 Members and 1 Guest are viewing this topic.

January 05, 2018, 02:10:16 PM
  • Elite Moderator
  • Legend Member
  • ****
  • Topic Author
  • Thank You: 1998
  • Reputation: 286
  • Activity:
    3.6%
  • Country: in
  • Posts: 3722
  • Topics: 2854
  • Join Date: Sep 2016
  • (: EnJOy D LiFe :)


15+ Sunrise 2014 MARATHI NFDC 720p Web-DL x264 AAC ESubs TMB










 :info:

General
Complete name : 15+ Sunrise 2014 NFDC 720p Web-DL x264 AAC ESubs [TMB].mkv
Format : Matroska
Format version : Version 4 / Version 2
File size : 2.49 GiB
Duration : 1 h 24 min
Overall bit rate : 4 188 kb/s

Video
Format : AVC
Format/Info : Advanced Video Codec
Format profile : [email protected]
Format settings : CABAC / 2 Ref Frames
Format settings, CABAC : Yes
Format settings, ReFrames : 2 frames
Format settings, GOP : M=1, N=12
Codec ID : V_MPEG4/ISO/AVC
Duration : 1 h 24 min
Bit rate : 4 092 kb/s
Width : 1 280 pixels
Height : 720 pixels
Display aspect ratio : 16:9
Frame rate mode : Constant
Frame rate : 24.000 FPS
Color space : YUV
Chroma subsampling : 4:2:0
Bit depth : 8 bits
Scan type : Progressive
Bits/(Pixel*Frame) : 0.185
Stream size : 2.43 GiB (98%)

Audio
Format : AAC
Format/Info : Advanced Audio Codec
Format profile : HE-AAC / LC
Format settings : Implicit
Codec ID : A_AAC-2
Duration : 1 h 24 min
Bit rate : 96.0 kb/s
Channel(s) : 2 channels
Channel positions : Front: L R
Sampling rate : 48.0 kHz / 24.0 kHz
Frame rate : 23.438 FPS (1024 SPF)
Compression mode : Lossy
Delay relative to video : -42 ms
Stream size : 57.6 MiB (2%)

Text
Format : UTF-8
Codec ID : S_TEXT/UTF8
Codec ID/Info : UTF-8 Plain Text
Duration : 1 h 22 min
Bit rate : 9 b/s
Count of elements : 278
Stream size : 5.47 KiB (0%)

by TeamTMB


 :ss:










 :download:










GD Link (.zip) :





Share this topic on FacebookShare this topic on GoogleShare this topic on MySpaceShare this topic on TwitterShare this topic on Yahoo

« Last Edit: January 05, 2018, 03:29:18 PM by PSYCHO »


* BUSY *

Thanks given by:


January 05, 2018, 07:20:23 PM
Reply #1
  • Elite Member
  • ***
  • Thank You: 0
  • Reputation: 2
  • Activity:
    0%
  • Posts: 408
  • Topics: 0
  • Join Date: May 2014
  • ShareSpark Member

Tags:
 

Related Topics

  Subject / Started by Replies Last post
0 Replies
844 Views
Last post December 17, 2017, 03:58:48 PM
by PSYCHO
0 Replies
709 Views
Last post December 17, 2017, 04:26:03 PM
by PSYCHO
0 Replies
712 Views
Last post January 05, 2018, 11:48:31 AM
by PSYCHO
0 Replies
703 Views
Last post January 05, 2018, 11:57:35 AM
by PSYCHO
0 Replies
728 Views
Last post January 05, 2018, 01:34:17 PM
by PSYCHO



Back to top