+ ShareSpark.net »  :::: Bollywood Zone » Regional Movies » Marathi Movies
|- Mumbai pune Mumbai 2(2017) 1080p HD WEBDL DD.5.1 Audio Team Jio Exclusive


10% SBI and 10% Discount

Mumbai pune Mumbai 2(2017) 1080p HD WEBDL DD.5.1 Audio Team Jio Exclusive

0 Members and 1 Guest are viewing this topic.

January 08, 2018, 11:05:43 PM
  • Global Moderator
  • Legend Member
  • *****
  • Topic Author
  • Thank You: 11188
  • Reputation: 2238
  • Activity:
    100%
  • Country: in
  • Posts: 5469
  • Topics: 4513
  • Join Date: Jan 2014
  • ıllıllı ѕмoĸιng ιѕ good ғor нealтн ıllıllı :)
Mumbai pune Mumbai 2(2017) 1080p HD WEBDL DD.5.1 Audio Team Jio Exclusive



Quote
Format                      : Matroska
Format version              : Version 4 / Version 2
File size                   : 7.09 GiB
Duration                    : 2 h 28 min
Overall bit rate            : 6 831 kb/s
Movie name                  : Team Jio
Encoded date                : UTC 2018-01-08 11:15:26
Writing application         : mkvmerge v19.0.0 ('Brave Captain') 64-bit
Writing library             : libebml v1.3.5 + libmatroska v1.4.8

Video
ID                          : 2
Format                      : AVC
Format/Info                 : Advanced Video Codec
Format profile              : [email protected]
Format settings             : CABAC / 2 Ref Frames
Format settings, CABAC      : Yes
Format settings, ReFrames   : 2 frames
Format settings, GOP        : M=1, N=12
Codec ID                    : V_MPEG4/ISO/AVC
Duration                    : 2 h 28 min
Bit rate                    : 6 637 kb/s
Width                       : 1 920 pixels
Height                      : 1 080 pixels
Display aspect ratio        : 16:9
Frame rate mode             : Constant
Frame rate                  : 24.000 FPS
Color space                 : YUV
Chroma subsampling          : 4:2:0
Bit depth                   : 8 bits
Scan type                   : Progressive
Bits/(Pixel*Frame)          : 0.133
Stream size                 : 6.89 GiB (97%)
Title                       : Team Jio
Default                     : Yes
Forced                      : No

Audio
ID                          : 1
Format                      : E-AC-3
Format/Info                 : Enhanced Audio Coding 3
Codec ID                    : A_EAC3
Duration                    : 2 h 28 min
Bit rate mode               : Constant
Bit rate                    : 192 kb/s
Channel(s)                  : 6 channels
Channel positions           : Front: L C R, Side: L R, LFE
Sampling rate               : 48.0 kHz
Frame rate                  : 187.500 FPS (256 SPF)
Compression mode            : Lossy
Delay relative to video     : -42 ms
Stream size                 : 204 MiB (3%)
Title                       : Team Jio
Service kind                : Complete Main
Default                     : Yes
Forced                      : No

:ss:








:download:

Quote



File Leeched & Uploaded From




Don't walk as you are king, walk as you don't care who the king is....!!
Never argue with an idiot. They drag you down to their level and then beat you with experience?

Share this topic on FacebookShare this topic on GoogleShare this topic on MySpaceShare this topic on TwitterShare this topic on Yahoo

« Last Edit: January 09, 2018, 12:01:23 AM by Rάήνίјάч1234 »



Don't walk as you are king, walk as you don't care who the king is....!!

Thanks given by:


January 08, 2018, 11:12:19 PM
Reply #1
  • Begginer
  • **
  • Thank You: 3
  • Reputation: 6
  • Activity:
    0.2%
  • Country: in
  • Posts: 61
  • Topics: 2
  • Join Date: Apr 2017
  • ShareSpark Member
« Last Edit: January 08, 2018, 11:14:38 PM by Raftaar1234 »

January 08, 2018, 11:17:23 PM
Reply #2
  • Global Moderator
  • Legend Member
  • *****
  • Topic Author
  • Thank You: 11188
  • Reputation: 2238
  • Activity:
    100%
  • Country: in
  • Posts: 5469
  • Topics: 4513
  • Join Date: Jan 2014
  • ıllıllı ѕмoĸιng ιѕ good ғor нealтн ıllıllı :)

Don't walk as you are king, walk as you don't care who the king is....!!

January 08, 2018, 11:21:16 PM
Reply #3
  • Begginer
  • **
  • Thank You: 3
  • Reputation: 6
  • Activity:
    0.2%
  • Country: in
  • Posts: 61
  • Topics: 2
  • Join Date: Apr 2017
  • ShareSpark Member

January 09, 2018, 12:05:39 AM
Reply #4
  • Global Moderator
  • Legend Member
  • *****
  • Topic Author
  • Thank You: 11188
  • Reputation: 2238
  • Activity:
    100%
  • Country: in
  • Posts: 5469
  • Topics: 4513
  • Join Date: Jan 2014
  • ıllıllı ѕмoĸιng ιѕ good ғor нealтн ıllıllı :)

Don't walk as you are king, walk as you don't care who the king is....!!

January 19, 2018, 05:13:01 AM
Reply #5
  • Newbie
  • **
  • Thank You: 0
  • Reputation: 0
  • Activity:
    0%
  • Country: in
  • Posts: 1
  • Topics: 0
  • Join Date: Jan 2017
  • ShareSpark Member

January 21, 2018, 11:21:41 AM
Reply #6
  • Newbie
  • **
  • Thank You: 0
  • Reputation: 0
  • Activity:
    0%
  • Posts: 1
  • Topics: 0
  • Join Date: Aug 2013
  • ShareSpark Member

Tags:
 

Related Topics

  Subject / Started by Replies Last post
3 Replies
1143 Views
Last post December 21, 2015, 06:52:35 AM
by r8u
0 Replies
866 Views
Last post October 22, 2017, 01:23:58 PM
by PSYCHO
0 Replies
912 Views
Last post October 22, 2017, 01:25:59 PM
by PSYCHO
1 Replies
1371 Views
Last post February 23, 2018, 04:42:27 AM
by tamilcinemaaz
0 Replies
1137 Views
Last post January 09, 2018, 08:47:10 AM
by eerwerw




Back to top