+ ShareSpark.net »  :::: Bollywood Zone » Bollywood Movies (Original Rips)
|- Haseena Parker (2017) x264 WEBDL Rip AAC 2.0 Team Jio Exclusive [With Archive Link]


Mastercard 10% Off
  • Haseena Parker (2017) x264 WEBDL Rip AAC 2.0 Team Jio Exclusive [With Archive Link] 5 1
Currently:  

Haseena Parker (2017) x264 WEBDL Rip AAC 2.0 Team Jio Exclusive [With Archive Link]

0 Members and 1 Guest are viewing this topic.

January 11, 2018, 11:01:41 PM
  • Global Moderator
  • Legend Member
  • *****
  • Topic Author
  • Thank You: 10847
  • Reputation: 2186
  • Activity:
    100%
  • Country: in
  • Posts: 5399
  • Topics: 4464
  • Join Date: Jan 2014
  • ıllıllı ѕмoĸιng ιѕ good ғor нealтн ıllıllı :)
Haseena Parker (2017) x264 WEBDL Rip  AAC 2.0 Team Jio Exclusive



:info:

Quote
Format                      : MPEG-4
Format profile              : Base Media
Codec ID                    : isom (isom/iso2/avc1/mp41)
File size                   : 1.10 GiB
Duration                    : 1 h 57 min
Overall bit rate mode       : Variable
Overall bit rate            : 1 334 kb/s
Writing application         : Lavf56.40.101

Video
ID                          : 1
Format                      : AVC
Format/Info                 : Advanced Video Codec
Format profile              : [email protected]
Format settings             : CABAC / 2 Ref Frames
Format settings, CABAC      : Yes
Format settings, ReFrames   : 2 frames
Codec ID                    : avc1
Codec ID/Info               : Advanced Video Coding
Duration                    : 1 h 57 min
Bit rate                    : 1 200 kb/s
Width                       : 640 pixels
Height                      : 272 pixels
Display aspect ratio        : 2.35:1
Frame rate mode             : Constant
Frame rate                  : 25.000 FPS
Color space                 : YUV
Chroma subsampling          : 4:2:0
Bit depth                   : 8 bits
Scan type                   : Progressive
Bits/(Pixel*Frame)          : 0.276
Stream size                 : 1 009 MiB (90%)
Writing library             : x264 core 138


Audio
ID                          : 2
Format                      : AAC
Format/Info                 : Advanced Audio Codec
Format profile              : LC
Codec ID                    : mp4a-40-2
Duration                    : 1 h 57 min
Bit rate mode               : Variable
Bit rate                    : 128 kb/s
Maximum bit rate            : 131 kb/s
Channel(s)                  : 2 channels
Channel positions           : Front: L R
Sampling rate               : 48.0 kHz
Frame rate                  : 46.875 FPS (1024 SPF)
Compression mode            : Lossy
Stream size                 : 108 MiB (10%)
Default                     : Yes
Alternate group             : 1

:ss:







:download:

Quote













File Leeched & Uploaded From




Don't walk as you are king, walk as you don't care who the king is....!!
Never argue with an idiot. They drag you down to their level and then beat you with experience?

Share this topic on FacebookShare this topic on GoogleShare this topic on MySpaceShare this topic on TwitterShare this topic on Yahoo

« Last Edit: January 11, 2018, 11:13:26 PM by Rάήνίјάч1234 »



Don't walk as you are king, walk as you don't care who the king is....!!

Thanks given by:


January 12, 2018, 04:09:38 AM
Reply #1
  • LaDLa PriNce
  • Addic7ed (Inactive)
  • Legend Member
  • ****
  • Thank You: 213
  • Reputation: 91
  • Activity:
    0.8%
  • Country: pk
  • Posts: 1777
  • Topics: 161
  • Join Date: Sep 2012
  • I <3 ShareSpark

January 12, 2018, 04:35:17 AM
Reply #2
  • Team SSX
  • Legend Member
  • ***
  • Thank You: 3940
  • Reputation: 947
  • Activity:
    100%
  • Country: np
  • Posts: 2070
  • Topics: 1214
  • Join Date: Jul 2016
  • Love Forever !!
Always  :thank:  :rep:
Plz Upload !!!..............
Andaaz Apna Apna 1994 HQ 1080p Blu-ray x264 DDS 5.1 -DTOne
Torrent link Given!!!
[HDMA Version 14.8gib Size]
« Last Edit: January 12, 2018, 04:36:47 AM by special26 »

January 12, 2018, 07:51:07 AM
Reply #3
  • Semi Newbie
  • **
  • Thank You: 0
  • Reputation: 0
  • Activity:
    0.4%
  • Country: in
  • Posts: 11
  • Topics: 3
  • Join Date: Jan 2018
  • ShareSpark Member
« Last Edit: January 12, 2018, 07:51:44 AM by rahulkhetwal »

Tags:
 

Related Topics





Back to top