+ ShareSpark.net »  :::: Hollywood Zone » Hollywood Movies (Pre Releases)
|- Darkest Hour 2017 DVDScr XVID AC3 [HQ Hive - CM8] 1.90GB

DTH Recharges 20% Back

Darkest Hour 2017 DVDScr XVID AC3 [HQ Hive - CM8] 1.90GB

0 Members and 1 Guest are viewing this topic.

January 12, 2018, 05:39:19 PM
  • Elite Moderator
  • Legend Member
  • ****
  • Topic Author
  • Thank You: 1998
  • Reputation: 286
  • Activity:
    3.6%
  • Country: in
  • Posts: 3722
  • Topics: 2854
  • Join Date: Sep 2016
  • (: EnJOy D LiFe :)
Darkest Hour 2017 DVDScr XVID AC3 HQ Hive - CM8



 :info:

IMDb :


Video
ID                                       : 0
Format                                   : MPEG-4 Visual
Format profile                           : Advanced [email protected]
Format settings                          : BVOP2 / QPel
Format settings, BVOP                    : 2
Format settings, QPel                    : Yes
Format settings, GMC                     : No warppoints
Format settings, Matrix                  : Default (H.263)
Muxing mode                              : Packed bitstream
Codec ID                                 : XVID
Codec ID/Hint                            : XviD
Duration                                 : 2 h 4 min
Bit rate                                 : 1 914 kb/s
Width                                    : 720 pixels
Height                                   : 384 pixels
Display aspect ratio                     : 1.85:1
Frame rate                               : 30.000 FPS
Color space                              : YUV
Chroma subsampling                       : 4:2:0
Bit depth                                : 8 bits
Scan type                                : Progressive
Compression mode                         : Lossy
Bits/(Pixel*Frame)                       : 0.231
Stream size                              : 1.67 GiB (88%)
Writing library                          : XviD 1.2.1 (UTC 2008-12-04)

Audio
ID                                       : 1
Format                                   : AC-3
Format/Info                              : Audio Coding 3
Format settings, Endianness              : Big
Codec ID                                 : 2000
Duration                                 : 2 h 4 min
Bit rate mode                            : Constant
Bit rate                                 : 256 kb/s
Channel(s)                               : 2 channels
Channel positions                        : Front: L R
Sampling rate                            : 48.0 kHz
Frame rate                               : 31.250 FPS (1536 SPF)
Bit depth                                : 16 bits
Compression mode                         : Lossy
Stream size                              : 229 MiB (12%)
Alignment                                : Split accross interleaves
Interleave, duration                     : 33  ms (1.00 video frame)
Interleave, preload duration             : 500  ms
Service kind                             : Complete Main


 :ss:




 :download:















Sample :







Share this topic on FacebookShare this topic on GoogleShare this topic on MySpaceShare this topic on TwitterShare this topic on Yahoo

« Last Edit: January 12, 2018, 05:47:54 PM by PSYCHO »


* BUSY *


Tags:
 

Related Topics

  Subject / Started by Replies Last post
0 Replies
664 Views
Last post January 12, 2018, 04:17:18 PM
by PSYCHO
0 Replies
483 Views
Last post February 06, 2018, 10:22:20 PM
by UnikAaYush
0 Replies
444 Views
Last post February 08, 2018, 08:40:39 AM
by Kraj23732Kumar
2 Replies
711 Views
Last post February 14, 2018, 10:05:33 PM
by UnikAaYush
0 Replies
384 Views
Last post February 16, 2018, 07:48:53 PM
by DjiSamSoe



Back to top