+ ShareSpark.net »  :::: Hollywood Zone » Hollywood Movies (Original Rips)
|- Acts of Violence 2018 WEB-DL XviD AC3 - [FGT] 1.21GB


TV and Appliances

Acts of Violence 2018 WEB-DL XviD AC3 - [FGT] 1.21GB

0 Members and 1 Guest are viewing this topic.

January 12, 2018, 06:41:19 PM
  • Elite Moderator
  • Legend Member
  • ****
  • Topic Author
  • Thank You: 2000
  • Reputation: 286
  • Activity:
    0%
  • Country: in
  • Posts: 3722
  • Topics: 2854
  • Join Date: Sep 2016
  • (: EnJOy D LiFe :)

Acts of Violence 2018 WEB-DL XviD AC3 FGT



 :info:

IMDb :

Video
ID                                       : 0
Format                                   : MPEG-4 Visual
Format profile                           : [email protected]
Format settings, BVOP                    : No
Format settings, QPel                    : No
Format settings, GMC                     : No warppoints
Format settings, Matrix                  : Default (H.263)
Codec ID                                 : XVID
Codec ID/Hint                            : XviD
Duration                                 : 1 h 26 min
Bit rate                                 : 1 600 kb/s
Width                                    : 720 pixels
Height                                   : 304 pixels
Display aspect ratio                     : 2.40:1
Frame rate                               : 23.976 (24000/1001) FPS
Color space                              : YUV
Chroma subsampling                       : 4:2:0
Bit depth                                : 8 bits
Scan type                                : Progressive
Compression mode                         : Lossy
Bits/(Pixel*Frame)                       : 0.305
Stream size                              : 993 MiB (80%)
Writing library                          : Lavc58.1.100

Audio
ID                                       : 1
Format                                   : AC-3
Format/Info                              : Audio Coding 3
Codec ID                                 : 2000
Duration                                 : 1 h 26 min
Bit rate mode                            : Constant
Bit rate                                 : 384 kb/s
Channel(s)                               : 6 channels
Channel positions                        : Front: L C R, Side: L R, LFE
Sampling rate                            : 48.0 kHz
Frame rate                               : 31.250 FPS (1536 SPF)
Bit depth                                : 16 bits
Compression mode                         : Lossy
Stream size                              : 238 MiB (19%)
Alignment                                : Aligned on interleaves
Interleave, duration                     : 42  ms (1.00 video frame)
Interleave, preload duration             : 512  ms
Service kind                             : Complete Main


 :ss:








 :download:

















Share this topic on FacebookShare this topic on GoogleShare this topic on MySpaceShare this topic on TwitterShare this topic on Yahoo

« Last Edit: January 12, 2018, 06:49:33 PM by PSYCHO »


* BUSY *

Thanks given by:


Tags:
 

Related Topics

  Subject / Started by Replies Last post
0 Replies
419 Views
Last post January 12, 2018, 06:18:53 PM
by ♥♫ ŘÃŇĎỖϻ ŘĮĎỖЎ ♥♫
1 Replies
490 Views
Last post January 12, 2018, 07:23:28 PM
by Abhisona
0 Replies
412 Views
Last post January 12, 2018, 07:25:03 PM
by Rάήνίјάч1234
0 Replies
371 Views
Last post January 12, 2018, 07:32:53 PM
by Rάήνίјάч1234
1 Replies
623 Views
Last post January 13, 2018, 10:35:53 AM
by eerwerw




Back to top