+ ShareSpark.net »  :::: Dubbed Zone (Dubbed English in Hindi) » English Movies Dubbed in Hindi » HEVC / H.265 Releases
|- Goodbye Christopher Robin (2017) 720p Bluray x265 HEVC Dual Audio [Hindi - English] DD5.1 - Msubs ~

Weekend Pay And Play 50% Off
  • Goodbye Christopher Robin (2017) 720p Bluray x265 HEVC Dual Audio [Hindi - English] DD5.1 - Msubs ~ 5 1
Currently:  

Goodbye Christopher Robin (2017) 720p Bluray x265 HEVC Dual Audio [Hindi - English] DD5.1 - Msubs ~

0 Members and 1 Guest are viewing this topic.

January 13, 2018, 02:56:24 PM
  • Global Moderator
  • Legend Member
  • *****
  • Topic Author
  • Thank You: 7248
  • Reputation: 1586
  • Activity:
    100%
  • Country: in
  • Posts: 4423
  • Topics: 3688
  • Join Date: Jan 2014
  • ıllıllı ѕмoĸιng ιѕ good ғor нealтн ıllıllı :)





Goodbye Christopher Robin (2017) 720p Bluray x265 HEVC Dual Audio [Hindi - English] DD5.1 - Msubs ~ Ranvijay

Quote
Format                                   : Matroska
Format version                           : Version 4 / Version 2
File size                                : 904 MiB
Duration                                 : 1 h 47 min
Overall bit rate                         : 1 181 kb/s
Movie name                               : Goodbye Christopher Robin (2017) 720p Bluray x265 HEVC Dual Audio [Hindi - English] DD5.1 - Msubs ~ Ranvijay

Video
ID                                       : 1
Format                                   : HEVC
Duration                                 : 1 h 47 min
Bit rate                                 : 752 kb/s
Width                                    : 1 280 pixels
Height                                   : 688 pixels
Display aspect ratio                     : 1.85:1
Frame rate mode                          : Constant
Frame rate                               : 23.976 (24000/1001) FPS
Stream size                              : 575 MiB (64%)
Title                                    : ~Ranvijay~
Default                                  : Yes
Forced                                   : N

Audio #1
ID                                       : 3
Format                                   : AAC
Format/Info                              : Advanced Audio Codec
Format profile                           : HE-AAC / LC
Format settings                          : Explicit
Codec ID                                 : A_AAC-2
Duration                                 : 1 h 47 min
Bit rate                                 : 192 kb/s
Channel(s)                               : 6 channels
Channel positions                        : Front: L C R, Side: L R, LFE
Sampling rate                            : 48.0 kHz / 24.0 kHz
Frame rate                               : 23.438 FPS (1024 SPF)
Compression mode                         : Lossy
Delay relative to video                  : 31 ms
Stream size                              : 147 MiB (16%)
Title                                    : ~Ranvijay~
Language                                 : English
Default                                  : No
Forced                                   : No

Audio #2
ID                                       : 5
Format                                   : AC-3
Format/Info                              : Audio Coding 3
Codec ID                                 : A_AC3
Duration                                 : 1 h 47 min
Bit rate mode                            : Constant
Bit rate                                 : 224 kb/s
Channel(s)                               : 6 channels
Channel positions                        : Front: L C R, Side: L R, LFE
Sampling rate                            : 48.0 kHz
Frame rate                               : 31.250 FPS (1536 SPF)
Bit depth                                : 16 bits
Compression mode                         : Lossy
Stream size                              : 171 MiB (19%)
Title                                    : ~Ranvijay~
Language                                 : Hindi
Service kind                             : Complete Main
Default                                  : Yes
Forced                                   : No

Text #1
ID                                       : 2
Format                                   : UTF-8
Codec ID                                 : S_TEXT/UTF8
Codec ID/Info                            : UTF-8 Plain Text
Duration                                 : 1 h 40 min
Bit rate                                 : 63 b/s
Count of elements                        : 1670
Stream size                              : 46.9 KiB (0%)
Title                                    : ~Ranvijay~
Language                                 : English
Default                                  : No
Forced                                   : No

Text #2
ID                                       : 4
Format                                   : PGS
Muxing mode                              : zlib
Codec ID                                 : S_HDMV/PGS
Codec ID/Info                            : Picture based subtitle format used on BDs/HD-DVDs
Duration                                 : 1 h 45 min
Bit rate                                 : 31.5 kb/s
Count of elements                        : 2852
Stream size                              : 23.8 MiB (3%)
Title                                    : ~Ranvijay~
Language                                 : Hindi
Default                                  : Yes
Forced                                   : No

Menu
00:00:00.000                             : :00:00:00.000
00:04:03.952                             : :00:04:03.952
00:07:01.171                             : :00:07:01.171
00:10:32.632                             : :00:10:32.632
00:13:40.528                             : :00:13:40.528
00:16:48.591                             : :00:16:48.591
00:20:43.409                             : :00:20:43.409
00:25:44.793                             : :00:25:44.793
00:30:36.752                             : :00:30:36.752
00:35:25.582                             : :00:35:25.582
00:40:50.740                             : :00:40:50.740
00:48:22.108                             : :00:48:22.108
00:52:32.733                             : :00:52:32.733
00:57:53.595                             : :00:57:53.595
01:03:35.812                             : :01:03:35.812
01:07:38.513                             : :01:07:38.513
01:12:43.860                             : :01:12:43.859
01:18:55.731                             : :01:18:55.731
01:21:45.609                             : :01:21:45.609
01:25:16.653                             : :01:25:16.653
01:29:10.428                             : :01:29:10.428
01:32:27.917                             : :01:32:27.917
01:35:55.917                             : :01:35:55.917
01:41:03.266                             : :01:41:03.266









:download:

Quote













File Leeched & Uploaded From




Don't walk as you are king, walk as you don't care who the king is....!!
Never argue with an idiot. They drag you down to their level and then beat you with experience?

Share this topic on FacebookShare this topic on GoogleShare this topic on MySpaceShare this topic on TwitterShare this topic on Yahoo




Don't walk as you are king, walk as you don't care who the king is....!!

Thanks given by:


January 13, 2018, 05:44:02 PM
Reply #1
  • Begginer
  • **
  • Thank You: 8
  • Reputation: 10
  • Activity:
    8.6%
  • Country: nl
  • Posts: 91
  • Topics: 6
  • Join Date: Oct 2017
  • ShareSpark Member

Tags:
 

Related Topics




Back to top