+ ShareSpark.net »  :::: Dubbed Zone (Dubbed English in Hindi) » English Movies Dubbed in Hindi » HEVC / H.265 Releases
|- Murder On The Orient Express (2017) 720p BluRay HEVC x265 Dual Audio [Hindi DD5.1 - English DD2.0] -


Electroncs Sale

Murder On The Orient Express (2017) 720p BluRay HEVC x265 Dual Audio [Hindi DD5.1 - English DD2.0] -

0 Members and 1 Guest are viewing this topic.

February 10, 2018, 12:48:33 PM
  • Global Moderator
  • Legend Member
  • *****
  • Topic Author
  • Thank You: 11257
  • Reputation: 2258
  • Activity:
    100%
  • Country: in
  • Posts: 5485
  • Topics: 4528
  • Join Date: Jan 2014
  • ıllıllı ѕмoĸιng ιѕ good ғor нealтн ıllıllı :)
Murder On The Orient Express (2017) 720p BluRay HEVC x265 Dual Audio [Hindi DD5.1 - English DD2.0] - Msubs ~ Ranvijay







Murder On The Orient Express (2017) 720p BluRay HEVC x265 Dual Audio [Hindi DD5.1 - English DD2.0] - Msubs ~ Ranvijay

Thanks To Rajput For Hindi Audio

Quote
Format                                   : Matroska
Format version                           : Version 4 / Version 2
File size                                : 1.05 GiB
Duration                                 : 1 h 53 min
Overall bit rate                         : 1 322 kb/s
Movie name                               : Murder On The Orient Express (2017) 720p BluRay HEVC x265 Dual Audio Hindi DD5.1 - English DD2.0] - Msubs ~ Ranvijay

Video
Duration                                 : 1 h 53 min
Bit rate                                 : 801 kb/s
Width                                    : 1 280 pixels
Height                                   : 536 pixels
Display aspect ratio                     : 2.40:1
Frame rate mode                          : Constant
Frame rate                               : 23.976 (24000/1001) FPS
Color space                              : YUV
Chroma subsampling                       : 4:2:0
Bit depth                                : 8 bits
Bits/(Pixel*Frame)                       : 0.049
Stream size                              : 652 MiB (61%)
Title                                    : ~Ranvijay~
Default                                  : Yes
Forced                                   : No

Audio #1
ID                                       : 3
Format                                   : AC-3
Format/Info                              : Audio Coding 3
Codec ID                                 : A_AC3
Duration                                 : 1 h 53 min
Bit rate mode                            : Constant
Bit rate                                 : 448 kb/s
Channel(s)                               : 6 channels
Channel positions                        : Front: L C R, Side: L R, LFE
Sampling rate                            : 48.0 kHz
Frame rate                               : 31.250 FPS (1536 SPF)
Bit depth                                : 16 bits
Compression mode                         : Lossy
Stream size                              : 365 MiB (34%)
Title                                    : ~Ranvijay~
Language                                 : Hindi
Service kind                             : Complete Main
Default                                  : Yes
Forced                                   : No

Audio #2
ID                                       : 4
Format                                   : AAC
Format/Info                              : Advanced Audio Codec
Format profile                           : HE-AAC / LC
Format settings                          : Explicit
Codec ID                                 : A_AAC-2
Duration                                 : 1 h 53 min
Bit rate                                 : 59.6 kb/s
Channel(s)                               : 6 channels
Channel positions                        : Front: L C R, Side: L R, LFE
Sampling rate                            : 48.0 kHz / 24.0 kHz
Frame rate                               : 23.438 FPS (1024 SPF)
Compression mode                         : Lossy
Delay relative to video                  : 31 ms
Stream size                              : 48.5 MiB (5%)
Title                                    : ~Ranvijay~
Language                                 : English
Default                                  : No
Forced                                   : No

Text #1
ID                                       : 2
Format                                   : UTF-8
Codec ID                                 : S_TEXT/UTF8
Codec ID/Info                            : UTF-8 Plain Text
Duration                                 : 1 h 44 min
Bit rate                                 : 72 b/s
Count of elements                        : 1845
Stream size                              : 55.5 KiB (0%)
Title                                    : ~Ranvijay~
Language                                 : English
Default                                  : No
Forced                                   : No

Text #2
ID                                       : 5
Format                                   : PGS
Muxing mode                              : zlib
Codec ID                                 : S_HDMV/PGS
Codec ID/Info                            : Picture based subtitle format used on BDs/HD-DVDs
Duration                                 : 1 h 52 min
Bit rate                                 : 33.2 kb/s
Count of elements                        : 3155
Stream size                              : 26.8 MiB (2%)
Title                                    : ~Ranvijay~
Language                                 : Hindi
Default                                  : Yes
Forced                                   : No

Menu
00:00:00.000                             : :00:00:00.000
00:03:06.144                             : :00:03:06.144
00:06:42.193                             : :00:06:42.193
00:11:44.746                             : :00:11:44.746
00:18:26.188                             : :00:18:26.188
00:24:53.659                             : :00:24:53.659
00:33:14.159                             : :00:33:14.159
00:37:47.515                             : :00:37:47.515
00:43:16.511                             : :00:43:16.511
00:46:24.865                             : :00:46:24.865
00:51:23.581                             : :00:51:23.580
00:55:52.015                             : :00:55:52.015
01:00:03.183                             : :01:00:03.183
01:05:39.227                             : :01:05:39.227
01:10:40.153                             : :01:10:40.153
01:14:17.578                             : :01:14:17.578
01:18:05.055                             : :01:18:05.055
01:21:12.284                             : :01:21:12.284
01:24:39.366                             : :01:24:39.366
01:28:37.854                             : :01:28:37.854
01:32:28.376                             : :01:32:28.376
01:37:04.652                             : :01:37:04.652
01:40:30.024                             : :01:40:30.024
01:46:49.904                             : :01:46:49.903












:download:

Quote











File Leeched & Uploaded From




Don't walk as you are king, walk as you don't care who the king is....!!
Never argue with an idiot. They drag you down to their level and then beat you with experience?

Share this topic on FacebookShare this topic on GoogleShare this topic on MySpaceShare this topic on TwitterShare this topic on Yahoo

« Last Edit: February 10, 2018, 09:57:49 PM by Rάήνίјάч1234 »



Don't walk as you are king, walk as you don't care who the king is....!!

Thanks given by:


Tags:
 

Related Topics





Back to top