+ ShareSpark.net »  :::: Bollywood Zone » Bollywood Movies (Original Rips)
|- Haseena Parkar 2017 720p WEB-HD x264 AAC-TEAM Moviezworldz


Haseena Parkar 2017 720p WEB-HD x264 AAC-TEAM Moviezworldz

0 Members and 1 Guest are viewing this topic.

January 14, 2018, 03:43:13 PM
  • Team SSX
  • Senior Member
  • ***
  • Topic Author
  • Thank You: 28
  • Reputation: 24
  • Activity:
    46.6%
  • Country: fr
  • Posts: 223
  • Topics: 130
  • Join Date: Dec 2017
  • ShareSpark Member
Haseena Parkar 2017 720p WEB-HD x264 AAC


General
Format                      : Matroska
Format version              : Version 4 / Version 2
File size                   : 860 MiB
Duration                    : 1 h 57 min
Overall bit rate            : 1 022 kb/s

Video
ID                          : 1
Format                      : AVC
Format/Info                 : Advanced Video Codec
Format profile              : [email protected]
Format settings             : CABAC / 4 Ref Frames
Format settings, CABAC      : Yes
Format settings, ReFrames   : 4 frames
Codec ID                    : V_MPEG4/ISO/AVC
Duration                    : 1 h 57 min
Bit rate                    : 900 kb/s
Width                       : 1 280 pixels
Height                      : 544 pixels
Display aspect ratio        : 2.35:1
Frame rate mode             : Constant
Frame rate                  : 24.926 FPS
Color space                 : YUV
Chroma subsampling          : 4:2:0
Bit depth                   : 8 bits
Scan type                   : Progressive
Bits/(Pixel*Frame)          : 0.052
Stream size                 : 751 MiB (87%)
Writing library             : x264 core 148 r2708 86b7198
Default                     : Yes
Forced                      : No

Audio
ID                          : 2
Format                      : AAC
Format/Info                 : Advanced Audio Codec
Format profile              : LC
Codec ID                    : A_AAC-2
Duration                    : 1 h 57 min
Bit rate                    : 128 kb/s
Channel(s)                  : 2 channels
Channel positions           : Front: L R
Sampling rate               : 44.1 kHz
Frame rate                  : 43.066 FPS (1024 SPF)
Compression mode            : Lossy
Stream size                 : 107 MiB (12%)
Language                    : Hindi
Default                     : Yes
Forced                      : No

















Code: [Select]
http://uptobox.com/5u5e4r1tvy7n
https://openload.co/f/CtrqCZ8IePs/
http://www.indishare.me/g1jyua5kh2ad
https://bdupload.info/cj9y21wr2o7o
http://filecloud.io/5yf4skgvn

Share this topic on FacebookShare this topic on GoogleShare this topic on MySpaceShare this topic on TwitterShare this topic on Yahoo

« Last Edit: January 14, 2018, 04:53:47 PM by ★Complex★ »



Tags:
 

Related Topics





Back to top