+ ShareSpark.net »  :::: Dubbed Zone (Dubbed English in Hindi) » English Movies Dubbed in Hindi » Animation Movies
|- The Gruffalo 2009 720p BluRay Dual Audio English Hindi GOPISAHI


100% Recharge Offer

The Gruffalo 2009 720p BluRay Dual Audio English Hindi GOPISAHI

0 Members and 1 Guest are viewing this topic.

January 14, 2018, 05:30:28 PM
  • Addic7ed
  • Special Member
  • ****
  • Topic Author
  • Thank You: 401
  • Reputation: 90
  • Activity:
    0.2%
  • Country: in
  • Posts: 815
  • Topics: 770
  • Join Date: Oct 2013
  • ShareSpark Member

Format                         : Matroska
Format version                 : Version 4 / Version 2
File size                      : 131 MiB
Duration                       : 27 min 0 s
Overall bit rate               : 677 kb/s
Movie name                     : The Gruffalo 2009 GOPISAHI

Video
Format                         : AVC
Codec ID                       : V_MPEG4/ISO/AVC
Duration                       : 27 min 0 s
Bit rate                       : 500 kb/s
Width                          : 1 280 pixels
Height                         : 720 pixels
Display aspect ratio           : 16:9
Frame rate mode                : Constant
Frame rate                     : 25.000 FPS
Stream size                    : 96.6 MiB (74%)
Writing library                : x264 core 148 r2708 86b7198


Audio #1
Format                         : AAC
Duration                       : 27 min 0 s
Bit rate                       : 86.6 kb/s
Channel(s)                     : 6 channels
Channel positions              : Front: L C R, Side: L R, LFE
Sampling rate                  : 44.1 kHz
Frame rate                     : 43.066 FPS (1024 SPF)
Stream size                    : 16.7 MiB (13%)
Title                          : GOPISAHI
Language                       : English

Audio #2
Format                         : AAC
Codec ID                       : A_AAC-2
Duration                       : 27 min 0 s
Bit rate                       : 87.5 kb/s
Channel(s)                     : 6 channels
Channel positions              : Front: L C R, Side: L R, LFE
Sampling rate                  : 44.1 kHz
Frame rate                     : 43.066 FPS (1024 SPF)
Stream size                    : 16.9 MiB (13%)
Title                          : GOPISAHI
Language                       : Hindi






Share this topic on FacebookShare this topic on GoogleShare this topic on MySpaceShare this topic on TwitterShare this topic on Yahoo



Thanks given by:


Tags:
 

Related Topics





Back to top