+ ShareSpark.net »  :::: Bollywood Zone » Regional Movies » Bengali Movies
|- Yeti Obhijaan (2017)) - Bengali Movie - 2CD - HD Rip[x264 - AAC3(5.1Ch)]


One Plus 6

Yeti Obhijaan (2017)) - Bengali Movie - 2CD - HD Rip[x264 - AAC3(5.1Ch)]

0 Members and 1 Guest are viewing this topic.

January 17, 2018, 08:55:22 AM
  • Semi Newbie
  • **
  • Topic Author
  • Thank You: 3
  • Reputation: 1
  • Activity:
    0%
  • Country: bd
  • Posts: 8
  • Topics: 8
  • Join Date: Dec 2017
  • ShareSpark Member
  Yeti Obhijaan (2017)) - Bengali Movie -
2CD - HD Rip[x264 - AAC3(5.1Ch)] 
 







Code: [Select]
General
Format                                   : Matroska
Format version                           : Version 2
File size                                : 1.40 GiB
Duration                                 : 2 h 37 min

Video
ID                                       : 1
Format                                   : AVC
Format/Info                              : Advanced Video Codec
Format profile                           : [email protected]
Format settings                          : CABAC / 4 Ref Frames
Format settings, CABAC                   : Yes
Format settings, RefFrames               : 4 frames
Codec ID                                 : V_MPEG4/ISO/AVC
Duration                                 : 2 h 37 min
Bit rate                                 : 1 147 kb/s
Width                                    : 720 pixels
Height                                   : 312 pixels
Display aspect ratio                     : 2.35:1
Frame rate mode                          : Constant
Frame rate                               : 25.000 FPS
Color space                              : YUV
Chroma subsampling                       : 4:2:0
Bit depth                                : 8 bits
Scan type                                : Progressive
Bits/(Pixel*Frame)                       : 0.204
Stream size                              : 1.26 GiB (90%)

Audio
ID                                       : 2
Format                                   : AAC
Format/Info                              : Advanced Audio Codec
Format profile                           : HE-AAC / LC
Format settings                          : Explicit
Codec ID                                 : A_AAC-2
Duration                                 : 2 h 37 min
Bit rate                                 : 128 kb/s
Channel(s)                               : 6 channels
Channel positions                        : Front: L C R, Side: L R, LFE
Sampling rate                            : 48.0 kHz
Stream size                              : 144 MiB (10%)


Thumbnail






LINKS ARE INTERCHANGEABLE



OR


OR




Share this topic on FacebookShare this topic on GoogleShare this topic on MySpaceShare this topic on TwitterShare this topic on Yahoo




January 17, 2018, 08:47:39 PM
Reply #1
  • Semi Newbie
  • **
  • Thank You: 0
  • Reputation: -1
  • Activity:
    0%
  • Country: in
  • Posts: 45
  • Topics: 0
  • Join Date: Jan 2017
  • ShareSpark Member
Pl check your links properly
1 st link showing cockpit link

January 18, 2018, 02:03:18 PM
Reply #2
  • Semi Newbie
  • **
  • Thank You: 0
  • Reputation: 0
  • Activity:
    0%
  • Posts: 29
  • Topics: 0
  • Join Date: Feb 2013
  • ShareSpark Member

Tags:
 

Related Topics

  Subject / Started by Replies Last post
1 Replies
1281 Views
Last post January 18, 2018, 07:10:40 PM
by 1974477447
0 Replies
1267 Views
Last post January 22, 2018, 12:02:04 PM
by Pherarim
0 Replies
1072 Views
Last post February 02, 2018, 11:54:57 AM
by Pherarim
0 Replies
1161 Views
Last post February 05, 2018, 11:03:11 AM
by Pherarim
2 Replies
1597 Views
Last post July 05, 2018, 08:48:50 AM
by alarka




Back to top