+ ShareSpark.net »  :::: Bollywood Zone » Regional Movies » Regional Movies in Hindi
|- Mumbai (2018) - Hindi Dubbed - 2CD - HDTV Rip[x264 - AAC3(5.1Ch)]

10% Off Cashback Carnival

Mumbai (2018) - Hindi Dubbed - 2CD - HDTV Rip[x264 - AAC3(5.1Ch)]

0 Members and 1 Guest are viewing this topic.

January 17, 2018, 08:29:45 PM
  • Semi Newbie
  • **
  • Topic Author
  • Thank You: 3
  • Reputation: 1
  • Activity:
    0%
  • Country: bd
  • Posts: 8
  • Topics: 8
  • Join Date: Dec 2017
  • ShareSpark Member
    Mumbai (2018) - Hindi Dubbed - 2CD -
HDTV Rip[x264 - AAC3(5.1Ch)]   
 





Code: [Select]
General
Format                                   : Matroska
Format version                           : Version 2
File size                                : 1.40 GiB
Duration                                 : 2 h 53 min

Video
ID                                       : 1
Format                                   : AVC
Format/Info                              : Advanced Video Codec
Format profile                           : [email protected]
Format settings                          : CABAC / 4 Ref Frames
Format settings, CABAC                   : Yes
Format settings, RefFrames               : 4 frames
Codec ID                                 : V_MPEG4/ISO/AVC
Duration                                 : 2 h 53 min
Bit rate                                 : 1 029 kb/s
Width                                    : 720 pixels
Height                                   : 312 pixels
Display aspect ratio                     : 2.35:1
Frame rate mode                          : Constant
Frame rate                               : 25.000 FPS
Color space                              : YUV
Chroma subsampling                       : 4:2:0
Bit depth                                : 8 bits
Scan type                                : Progressive
Bits/(Pixel*Frame)                       : 0.183
Stream size                              : 1.24 GiB (89%)

Audio
ID                                       : 2
Format                                   : AAC
Format/Info                              : Advanced Audio Codec
Format profile                           : HE-AAC / LC
Format settings                          : Explicit
Codec ID                                 : A_AAC-2
Duration                                 : 2 h 53 min
Bit rate                                 : 128 kb/s
Channel(s)                               : 6 channels
Channel positions                        : Front: L C R, Side: L R, LFE
Sampling rate                            : 48.0 kHz
Stream size                              : 158 MiB (11%)


Thumbnail






LINKS ARE INTERCHANGEABLE



OR


OR



Share this topic on FacebookShare this topic on GoogleShare this topic on MySpaceShare this topic on TwitterShare this topic on Yahoo



Thanks given by:


January 18, 2018, 12:08:11 PM
Reply #1
  • Begginer
  • **
  • Thank You: 82
  • Reputation: 54
  • Activity:
    0.4%
  • Country: bb
  • Posts: 93
  • Topics: 68
  • Join Date: Dec 2017
  • ShareSpark Member

Tags:
 

Related Topics

  Subject / Started by Replies Last post
1 Replies
950 Views
Last post January 03, 2015, 11:47:05 PM
by bsn089
0 Replies
972 Views
Last post January 22, 2018, 12:02:04 PM
by Pherarim
0 Replies
914 Views
Last post February 02, 2018, 11:54:57 AM
by Pherarim
1 Replies
999 Views
Last post February 03, 2018, 07:01:25 AM
by Changezi
0 Replies
706 Views
Last post April 13, 2018, 09:47:57 AM
by UnikAaYush



Back to top