+ ShareSpark.net »  :::: Bollywood Zone » Regional Movies » Bengali Movies
|- Yeti Obhijaan (2017)) - Bengali Movie - 1CD - HD Rip[x264 - AAC3(5.1Ch)]


100% DTH Offer

Yeti Obhijaan (2017)) - Bengali Movie - 1CD - HD Rip[x264 - AAC3(5.1Ch)]

0 Members and 1 Guest are viewing this topic.

January 18, 2018, 02:36:37 PM
  • Semi Newbie
  • **
  • Topic Author
  • Thank You: 3
  • Reputation: 1
  • Activity:
    0%
  • Country: bd
  • Posts: 8
  • Topics: 8
  • Join Date: Dec 2017
  • ShareSpark Member
  Yeti Obhijaan (2017)) - Bengali Movie -
 1CD - HD Rip[x264 - AAC3(5.1Ch)] 
 







Code: [Select]
General
Format                                   : Matroska
Format version                           : Version 2
File size                                : 699 MiB
Duration                                 : 2 h 37 min

Video
ID                                       : 1
Format                                   : AVC
Format/Info                              : Advanced Video Codec
Format profile                           : [email protected]
Format settings                          : CABAC / 4 Ref Frames
Format settings, CABAC                   : Yes
Format settings, RefFrames               : 4 frames
Codec ID                                 : V_MPEG4/ISO/AVC
Duration                                 : 2 h 37 min
Bit rate                                 : 492 kb/s
Width                                    : 560 pixels
Height                                   : 240 pixels
Display aspect ratio                     : 2.35:1
Frame rate mode                          : Constant
Frame rate                               : 25.000 FPS
Color space                              : YUV
Chroma subsampling                       : 4:2:0
Bit depth                                : 8 bits
Scan type                                : Progressive
Bits/(Pixel*Frame)                       : 0.146
Stream size                              : 553 MiB (79%)

Audio
ID                                       : 2
Format                                   : AAC
Format/Info                              : Advanced Audio Codec
Format profile                           : HE-AAC / LC
Format settings                          : Explicit
Codec ID                                 : A_AAC-2
Duration                                 : 2 h 37 min
Bit rate                                 : 128 kb/s
Channel(s)                               : 6 channels
Channel positions                        : Front: L C R, Side: L R, LFE
Sampling rate                            : 48.0 kHz
Stream size                              : 144 MiB (21%)


Thumbnail









Share this topic on FacebookShare this topic on GoogleShare this topic on MySpaceShare this topic on TwitterShare this topic on Yahoo

« Last Edit: January 18, 2018, 02:38:23 PM by Pherarim »



January 18, 2018, 07:10:40 PM
Reply #1
  • Semi Newbie
  • **
  • Thank You: 0
  • Reputation: -1
  • Activity:
    0%
  • Country: in
  • Posts: 45
  • Topics: 0
  • Join Date: Jan 2017
  • ShareSpark Member

 

Related Topics

  Subject / Started by Replies Last post
2 Replies
1455 Views
Last post January 18, 2018, 02:03:18 PM
by macwell
0 Replies
1289 Views
Last post January 22, 2018, 12:02:04 PM
by Pherarim
0 Replies
1104 Views
Last post February 02, 2018, 11:54:57 AM
by Pherarim
0 Replies
1188 Views
Last post February 05, 2018, 11:03:11 AM
by Pherarim
2 Replies
1657 Views
Last post July 05, 2018, 08:48:50 AM
by alarka




Back to top