+ ShareSpark.net »  :::: Dubbed Zone (Dubbed English in Hindi) » TV Shows (Dubbed in Hindi)
|- Fear The Walking Dead Season 1 2015 720p BD Dual Audio English Hindi GD


Fear The Walking Dead Season 1 2015 720p BD Dual Audio English Hindi GD

0 Members and 1 Guest are viewing this topic.

January 21, 2018, 10:13:24 AM
  • Addic7ed
  • Special Member
  • ****
  • Topic Author
  • Thank You: 404
  • Reputation: 91
  • Activity:
    0%
  • Country: in
  • Posts: 816
  • Topics: 771
  • Join Date: Oct 2013
  • ShareSpark Member

Format                         : Matroska
Format version                 : Version 4 / Version 2
File size                      : 308 MiB
Overall bit rate               : 667 kb/s
Movie name                     : 1 GOPISAHI

Video
Format                         : AVC
Codec ID                       : V_MPEG4/ISO/AVC
Bit rate                       : 500 kb/s
Width                          : 1 280 pixels
Height                         : 720 pixels
Display aspect ratio           : 16:9
Frame rate mode                : Constant
Frame rate                     : 23.976 (24000/1001) FPS
Stream size                    : 231 MiB (75%)
Writing library                : x264 core 148 r2708 86b7198

Audio #1
Format                         : AAC
Bit rate                       : 81.9 kb/s
Channel(s)                     : 6 channels
Channel positions              : Front: L C R, Side: L R, LFE
Sampling rate                  : 44.1 kHz
Frame rate                     : 43.066 FPS (1024 SPF)
Stream size                    : 37.8 MiB (12%)
Language                       : Hindi

Audio #2
Format                         : AAC
Bit rate                       : 82.2 kb/s
Channel(s)                     : 6 channels
Frame rate                     : 43.066 FPS (1024 SPF)
Stream size                    : 38.0 MiB (12%)
Title                          : GOPISAHI
Language                       : English




Share this topic on FacebookShare this topic on GoogleShare this topic on MySpaceShare this topic on TwitterShare this topic on Yahoo



Thanks given by:


Tags:
 

Related Topics





Back to top