+ ShareSpark.net »  :::: Bollywood Zone » Regional Movies » Regional Movies in Hindi
|- Super Khiladi 4 (Nenu Local) 2018 HINDI 720p WEB-DL AVC AAC [ShareSpark] 773MB


Huawei P20 Lite

Super Khiladi 4 (Nenu Local) 2018 HINDI 720p WEB-DL AVC AAC [ShareSpark] 773MB

0 Members and 1 Guest are viewing this topic.

January 24, 2018, 10:13:30 PM
  • Elite Moderator
  • Legend Member
  • ****
  • Topic Author
  • Thank You: 1996
  • Reputation: 286
  • Activity:
    4.6%
  • Country: in
  • Posts: 3704
  • Topics: 2845
  • Join Date: Sep 2016
  • (: EnJOy D LiFe :)
Super Khiladi 4 (Nenu Local) 2018 HINDI 720p WEB-DL AVC AAC ShareSpark



 :info:

IMDb :


Video
ID : 1
Format : AVC
Format/Info : Advanced Video Codec
Format profile : [email protected]
Format settings : CABAC / 3 Ref Frames
Format settings, CABAC : Yes
Format settings, RefFrames : 3 frames
Codec ID : avc1
Codec ID/Info : Advanced Video Coding
Duration : 1 h 53 min
Bit rate : 824 kb/s
Width : 1 280 pixels
Height : 720 pixels
Display aspect ratio : 16:9
Frame rate mode : Constant
Frame rate : 25.000 FPS
Color space : YUV
Chroma subsampling : 4:2:0
Bit depth : 8 bits
Scan type : Progressive
Bits/(Pixel*Frame) : 0.036
Stream size : 668 MiB (86%)

Audio
ID : 2
Format : AAC
Format/Info : Advanced Audio Codec
Format profile : LC
Codec ID : mp4a-40-2
Duration : 1 h 53 min
Bit rate mode : Variable
Bit rate : 126 kb/s
Channel(s) : 2 channels
Channel positions : Front: L R
Sampling rate : 44.1 kHz
Frame rate : 43.066 FPS (1024 SPF)
Compression mode : Lossy
Stream size : 102 MiB (13%)

Source : Goldmines


 :ss:

   

   

   

   


 :download:


Take it Or Leave it
 :yahoo: Wait For [-=!Dr.STAR!=-] UNCUT Release   :yahoo:





















Share this topic on FacebookShare this topic on GoogleShare this topic on MySpaceShare this topic on TwitterShare this topic on Yahoo

« Last Edit: January 24, 2018, 10:25:29 PM by PSYCHO »


* BUSY *

Thanks given by:


Tags:
 

Related Topics




Back to top