+ ShareSpark.net »  :::: Bollywood Zone » Pakistani / Urdu Movies
|- Siyaah 2013 - URDU - 720p - WEBHD - AVC - AAC - XMAD - 700MB


No COST EMI

Siyaah 2013 - URDU - 720p - WEBHD - AVC - AAC - XMAD - 700MB

0 Members and 1 Guest are viewing this topic.

January 26, 2018, 01:05:18 AM
  • Semi Newbie
  • **
  • Topic Author
  • Thank You: 19
  • Reputation: 4
  • Activity:
    0.2%
  • Posts: 34
  • Topics: 10
  • Join Date: Jul 2012
  • ShareSpark Member
:title:
Siyaah 2013 - URDU - 720p - WEBHD - AVC - AAC - XMAD - 700MB

Exclusive By

[-=!XMAD!=-]




:imdb:
Quote

 :plot:
Quote
The use of black magic is prevalent in our society. There is an intricate web of conspiracies that stem from this practice.

 :info:
Quote
General
Complete name                            : Siyaah 2013 - URDU - 720p - WEBHD - AVC - AAC - XMAD.mp4
Format                                   : MPEG-4
Format profile                           : Base Media / Version 2
Codec ID                                 : mp42 (isom/mp42)
File size                                : 697 MiB
Duration                                 : 1 h 49 min
Overall bit rate mode                    : Variable
Overall bit rate                         : 893 kb/s
Encoded date                             : UTC 2017-11-11 18:03:29
Tagged date                              : UTC 2017-11-11 18:03:29
gsst                                     : 0
gstd                                     : 6550302

Video
ID                                       : 1
Format                                   : AVC
Format/Info                              : Advanced Video Codec
Format profile                           : [email protected]
Format settings                          : CABAC / 3 Ref Frames
Format settings, CABAC                   : Yes
Format settings, ReFrames                : 3 frames
Codec ID                                 : avc1
Codec ID/Info                            : Advanced Video Coding
Duration                                 : 1 h 49 min
Bit rate                                 : 764 kb/s
Width                                    : 1 280 pixels
Height                                   : 720 pixels
Display aspect ratio                     : 16:9
Frame rate mode                          : Constant
Frame rate                               : 24.000 FPS
Color space                              : YUV
Chroma subsampling                       : 4:2:0
Bit depth                                : 8 bits
Scan type                                : Progressive
Bits/(Pixel*Frame)                       : 0.035
Stream size                              : 596 MiB (86%)
Title                                    : ISO Media file produced by Google Inc. Created on: 11/11/2017.
Encoded date                             : UTC 2017-11-11 18:03:29
Tagged date                              : UTC 2017-11-11 18:03:29
Color range                              : Limited
Color primaries                          : BT.709
Transfer characteristics                 : BT.709
Matrix coefficients                      : BT.709

Audio
ID                                       : 2
Format                                   : AAC
Format/Info                              : Advanced Audio Codec
Format profile                           : LC
Codec ID                                 : mp4a-40-2
Duration                                 : 1 h 49 min
Bit rate mode                            : Variable
Bit rate                                 : 126 kb/s
Channel(s)                               : 2 channels
Channel positions                        : Front: L R
Sampling rate                            : 44.1 kHz
Frame rate                               : 43.066 FPS (1024 SPF)
Compression mode                         : Lossy
Stream size                              : 98.1 MiB (14%)
Title                                    : ISO Media file produced by Google Inc. Created on: 11/11/2017.
Encoded date                             : UTC 2017-11-11 18:03:29
Tagged date                              : UTC 2017-11-11 18:03:29

 :ss:



 :download:

Quote
















Share this topic on FacebookShare this topic on GoogleShare this topic on MySpaceShare this topic on TwitterShare this topic on Yahoo



Thanks given by:


January 26, 2018, 08:59:00 AM
Reply #1
  • Hero Member
  • ***
  • Thank You: 0
  • Reputation: 7
  • Activity:
    62%
  • Country: au
  • Posts: 363
  • Topics: 0
  • Join Date: Oct 2017
  • ShareSpark Member

Tags:
 

Related Topics

  Subject / Started by Replies Last post
2 Replies
1144 Views
Last post August 06, 2017, 12:00:47 PM
by shahidimran
1 Replies
1002 Views
Last post August 24, 2017, 10:11:53 PM
by abubakar7861
2 Replies
1719 Views
Last post January 26, 2018, 07:06:03 PM
by shahidimran
2 Replies
1156 Views
Last post January 26, 2018, 07:06:27 PM
by shahidimran
1 Replies
1657 Views
Last post January 26, 2018, 07:06:41 PM
by shahidimran



Back to top