+ ShareSpark.net »  :::: Bollywood Zone » Regional Movies » Bengali Movies
|-  Jio Pagla (2017) Bengali Movie - 2CD - DvDScrRip[x264 - AAC3(2Ch)]

Mobile Recharge Offer 20% Off

Jio Pagla (2017) Bengali Movie - 2CD - DvDScrRip[x264 - AAC3(2Ch)]

0 Members and 1 Guest are viewing this topic.

February 05, 2018, 11:03:11 AM
  • Semi Newbie
  • **
  • Topic Author
  • Thank You: 3
  • Reputation: 1
  • Activity:
    0%
  • Country: bd
  • Posts: 8
  • Topics: 8
  • Join Date: Dec 2017
  • ShareSpark Member
Jio Pagla (2017) Bengali Movie - 2CD -
 DvDScrRip[x264 - AAC3(2Ch)] 






Code: [Select]
General
Format                                   : Matroska
Format version                           : Version 2
File size                                : 1.40 GiB
Duration                                 : 3 h 13 min

Video
ID                                       : 1
Format                                   : AVC
Format/Info                              : Advanced Video Codec
Format profile                           : [email protected]
Format settings                          : CABAC / 4 Ref Frames
Format settings, CABAC                   : Yes
Format settings, RefFrames               : 4 frames
Codec ID                                 : V_MPEG4/ISO/AVC
Duration                                 : 3 h 13 min
Bit rate                                 : 908 kb/s
Width                                    : 720 pixels
Height                                   : 392 pixels
Display aspect ratio                     : 1.85:1
Frame rate mode                          : Constant
Frame rate                               : 25.000 FPS
Color space                              : YUV
Chroma subsampling                       : 4:2:0
Bit depth                                : 8 bits
Scan type                                : Progressive
Bits/(Pixel*Frame)                       : 0.129
Stream size                              : 1.23 GiB (87%)

Audio
ID                                       : 2
Format                                   : AAC
Format/Info                              : Advanced Audio Codec
Format profile                           : HE-AAC / LC
Format settings                          : Explicit
Codec ID                                 : A_AAC-2
Duration                                 : 3 h 13 min
Bit rate                                 : 128 kb/s
Channel(s)                               : 2 channels
Channel positions                        : Front: L R
Sampling rate                            : 48.0 kHz
Stream size                              : 177 MiB (12%)


Thumbnail






LINKS ARE INTERCHANGEABLE



OR


OR



Share this topic on FacebookShare this topic on GoogleShare this topic on MySpaceShare this topic on TwitterShare this topic on Yahoo

« Last Edit: February 05, 2018, 11:06:56 AM by Pherarim »



Tags:
 

Related Topics

  Subject / Started by Replies Last post
0 Replies
789 Views
Last post August 29, 2016, 09:49:41 PM
by __B!RoH!_MoN__
2 Replies
1252 Views
Last post January 18, 2018, 02:03:18 PM
by macwell
1 Replies
996 Views
Last post January 18, 2018, 07:10:40 PM
by 1974477447
0 Replies
952 Views
Last post January 22, 2018, 12:02:04 PM
by Pherarim
0 Replies
895 Views
Last post February 02, 2018, 11:54:57 AM
by Pherarim



Back to top