+ ShareSpark.net »  :::: Bollywood Zone » Bollywood Movies (Original Rips) » HEVC / H.265 Releases
|- Dhoom 2 (2006) 1080P BLURAY X265 HEVC 10BIT AAC 5.1 HINDI NATTY


10% SBI and 10% Discount

Dhoom 2 (2006) 1080P BLURAY X265 HEVC 10BIT AAC 5.1 HINDI NATTY

0 Members and 1 Guest are viewing this topic.

February 08, 2018, 10:35:25 AM
  • Conqueror
  • Legend Member
  • *****
  • Topic Author
  • Thank You: 7037
  • Reputation: 1441
  • Activity:
    100%
  • Country: np
  • Posts: 2876
  • Topics: 2253
  • Join Date: Jul 2016
  • *Love Forever*
Dhoom 2 (2006) 1080P BLURAY X265 HEVC 10BIT AAC 5.1 HINDI NATTY



 :info:
Format : Matroska
Format version : Version 4 / Version 2
File size : 4.26 GiB
Duration : 2 h 31 min
Overall bit rate : 4 021 kb/s


Video
ID : 1
Format : HEVC
Format/Info : High Efficiency Video Coding
Format profile : Main [email protected]@Main
Codec ID : V_MPEGH/ISO/HEVC
Duration : 2 h 31 min
Bit rate : 3 502 kb/s
Width : 1 920 pixels
Height : 818 pixels
Display aspect ratio : 2.35:1
Frame rate mode : Constant
Frame rate : 24.000 FPS


Audio
ID : 2
Format : AAC
Format/Info : Advanced Audio Codec
Format profile : LC
Codec ID : A_AAC
Duration : 2 h 31 min
Bit rate : 494 kb/s
Channel(s) : 6 channels
Channel positions : Front: L C R, Side: L R, LFE
Sampling rate : 48.0 kHz
Frame rate : 46.875 FPS (1024 spf)
Compression mode : Lossy
Delay relative to video : 20 ms
Stream size : 536 MiB (12%)
Language : Hindi
Default : No
Forced : No

Subtitle #1
ID : 3
Format : PGS
Muxing mode : zlib
Codec ID : S_HDMV/PGS
Codec ID/Info : Picture based subtitle format used on BDs/HD-DVDs
Duration : 2 h 31 min
Bit rate : 23.0 kb/s
Count of elements : 3064
Stream size : 24.8 MiB (1%)
Language : English
Default : Yes
Forced : No

Subtitle #2
ID : 4
Format : PGS
Muxing mode : zlib
Codec ID : S_HDMV/PGS
Codec ID/Info : Picture based subtitle format used on BDs/HD-DVDs
Duration : 2 h 31 min
Bit rate : 10.8 kb/s
Count of elements : 3064
Stream size : 11.6 MiB (0%)
Language : Arabic
Default : No
Forced : No

Subtitle #3
ID : 5
Format : PGS
Muxing mode : zlib
Codec ID : S_HDMV/PGS
Codec ID/Info : Picture based subtitle format used on BDs/HD-DVDs
Duration : 2 h 31 min
Bit rate : 41.9 kb/s
Count of elements : 3582
Stream size : 45.2 MiB (1%)
Language : Tamil
Default : No
Forced : No

Subtitle #4
ID : 6
Format : PGS
Muxing mode : zlib
Codec ID : S_HDMV/PGS
Codec ID/Info : Picture based subtitle format used on BDs/HD-DVDs
Duration : 2 h 31 min
Bit rate : 20.7 kb/s
Count of elements : 3070
Stream size : 22.3 MiB (1%)
Language : Telugu
Default : No
Forced : No

Menu
00:00:00.000 : en:Chapter 1
00:07:07.583 : en:Chapter 2
00:10:24.083 : en:Chapter 3
00:18:14.458 : en:Chapter 4
00:30:50.875 : en:Chapter 5
00:36:13.625 : en:Chapter 6
00:50:10.166 : en:Chapter 7
01:02:42.208 : en:Chapter 8
01:07:49.750 : en:Chapter 9
01:17:53.791 : en:Chapter 10
01:24:46.458 : en:Chapter 11
01:34:38.291 : en:Chapter 12
01:39:18.708 : en:Chapter 13
01:49:01.250 : en:Chapter 14
01:56:24.250 : en:Chapter 15
02:01:28.625 : en:Chapter 16
02:08:51.416 : en:Chapter 17
02:11:55.916 : en:Chapter 18
02:17:25.125 : en:Chapter 19
02:29:17.208 : en:Chapter 20
02:31:44.416 : en:Chapter 21


 :ss:




:download:

Share this topic on FacebookShare this topic on GoogleShare this topic on MySpaceShare this topic on TwitterShare this topic on Yahoo

« Last Edit: November 29, 2018, 02:38:28 PM by Special26 »


Thanks given by:


February 08, 2018, 10:55:58 AM
Reply #1
  • Begginer
  • **
  • Thank You: 8
  • Reputation: 9
  • Activity:
    0%
  • Country: nl
  • Posts: 88
  • Topics: 6
  • Join Date: Oct 2017
  • ShareSpark Member

Tags:
 

Related Topics





Back to top